Results 1 to 1 of 1
  1. #1

    Thumbs up Golmaal 3 2010 Bluray 720p x264 DTS - FictionBoy [500Mb parts + Single link]

    Follow us on Social Media








    Code:
    Source: BD50
    
    General
    
    Format                           : Matroska
    File size                        : 4.37 GiB
    Duration                         : 2h 20mn
    
    
    
    Video
    
    Format                           : AVC
    Format profile                   : [email protected]
    Format settings, ReFrames        : 4 frames
    Duration                         : 2h 20mn
    Bit rate                         : 3701 Kbps
    Width                            : 1 280 pixels
    Height                           : 576 pixels
    Display aspect ratio             : 2.22
    Frame rate                       : 24.000 fps
    Bits/(Pixel*Frame)               : 0.209
    Stream size                      : 3.54 GiB (81%)
    Writing library                  : x264 core 114 r1913 5fd3dce
    
    
    Audio
    
    Format                           : DTS
    Duration                         : 2h 25mn
    Bit rate mode                    : Constant
    Bit rate                         : 755 Kbps
    Channel(s)                       : 6 channels
    Channel positions                : Front: L C R, Side: L R, LFE
    Stream size                      : 756 MiB (12%)
    Language                         : Hindi
    
    Subtitle
    
    Language                         : English















    See Online:
    Duckload:
    Code:
    http://www.duckload.com/play/BFBC5C2349BA6F11
    Single link:
    Duckload:
    Code:
    http://www.duckload.com/download/3688969/Golmaal.3.Bluray.x264.720p.DTS-FBoy.mkv
    500Mb links:
    Hotfile:
    Code:
    http://hotfile.com/dl/110219518/86658fe/Golmaal.3.Bluray.x264.720p.DTS-FBoy.by.heavenly95.part01.rar.html
    http://hotfile.com/dl/110219505/b57a71f/Golmaal.3.Bluray.x264.720p.DTS-FBoy.by.heavenly95.part02.rar.html
    http://hotfile.com/dl/110219589/3f6b140/Golmaal.3.Bluray.x264.720p.DTS-FBoy.by.heavenly95.part03.rar.html
    http://hotfile.com/dl/110219574/a12faef/Golmaal.3.Bluray.x264.720p.DTS-FBoy.by.heavenly95.part04.rar.html
    http://hotfile.com/dl/110219604/b5e0385/Golmaal.3.Bluray.x264.720p.DTS-FBoy.by.heavenly95.part05.rar.html
    http://hotfile.com/dl/110219945/5020733/Golmaal.3.Bluray.x264.720p.DTS-FBoy.by.heavenly95.part06.rar.html
    http://hotfile.com/dl/110219971/20812d7/Golmaal.3.Bluray.x264.720p.DTS-FBoy.by.heavenly95.part07.rar.html
    http://hotfile.com/dl/110219937/9054984/Golmaal.3.Bluray.x264.720p.DTS-FBoy.by.heavenly95.part08.rar.html
    http://hotfile.com/dl/110219990/22c606c/Golmaal.3.Bluray.x264.720p.DTS-FBoy.by.heavenly95.part09.rar.html
    Fileserve:
    Code:
    http://www.fileserve.com/file/bt8R9CT/Golmaal.3.Bluray.x264.720p.DTS-FBoy.by.heavenly95.part01.rar
    http://www.fileserve.com/file/pReTZ92/Golmaal.3.Bluray.x264.720p.DTS-FBoy.by.heavenly95.part02.rar
    http://www.fileserve.com/file/Q8Bf2NY/Golmaal.3.Bluray.x264.720p.DTS-FBoy.by.heavenly95.part03.rar
    http://www.fileserve.com/file/qanU2JS/Golmaal.3.Bluray.x264.720p.DTS-FBoy.by.heavenly95.part04.rar
    http://www.fileserve.com/file/NFQz4HS/Golmaal.3.Bluray.x264.720p.DTS-FBoy.by.heavenly95.part05.rar
    http://www.fileserve.com/file/kPUMZ3M/Golmaal.3.Bluray.x264.720p.DTS-FBoy.by.heavenly95.part06.rar
    http://www.fileserve.com/file/etj8qYN/Golmaal.3.Bluray.x264.720p.DTS-FBoy.by.heavenly95.part07.rar
    http://www.fileserve.com/file/xY98WVY/Golmaal.3.Bluray.x264.720p.DTS-FBoy.by.heavenly95.part08.rar
    http://www.fileserve.com/file/FyVRXEZ/Golmaal.3.Bluray.x264.720p.DTS-FBoy.by.heavenly95.part09.rar
    Filesonic:
    Code:
    http://www.filesonic.com/file/228156631/Golmaal.3.Bluray.x264.720p.DTS-FBoy.by.heavenly95.part01.rar
    http://www.filesonic.com/file/228140271/Golmaal.3.Bluray.x264.720p.DTS-FBoy.by.heavenly95.part02.rar
    http://www.filesonic.com/file/228146951/Golmaal.3.Bluray.x264.720p.DTS-FBoy.by.heavenly95.part03.rar
    http://www.filesonic.com/file/228150731/Golmaal.3.Bluray.x264.720p.DTS-FBoy.by.heavenly95.part04.rar
    http://www.filesonic.com/file/228144921/Golmaal.3.Bluray.x264.720p.DTS-FBoy.by.heavenly95.part05.rar
    http://www.filesonic.com/file/228147991/Golmaal.3.Bluray.x264.720p.DTS-FBoy.by.heavenly95.part06.rar
    http://www.filesonic.com/file/228215761/Golmaal.3.Bluray.x264.720p.DTS-FBoy.by.heavenly95.part07.rar
    http://www.filesonic.com/file/228148431/Golmaal.3.Bluray.x264.720p.DTS-FBoy.by.heavenly95.part08.rar
    http://www.filesonic.com/file/228127121/Golmaal.3.Bluray.x264.720p.DTS-FBoy.by.heavenly95.part09.rar
    Last edited by .:heavenly95:.; 03-14-2011 at 11:59 PM.
    Man is still the most extraordinary computer of all.




 

 

Posting Permissions

  • You may not post new threads
  • You may not post replies
  • You may not post attachments
  • You may not edit your posts
  •