Results 1 to 1 of 1
  1. #1
    Super Member www.desirulez.net
    Join Date
    Jan 2011
    Posts
    495

    T

    Default TNA.Victory.Road.2011.PPV.720p.HDTV.x264-XS

    Follow us on Social Media







    TNA.Victory.Road.2011.PPV.720p.HDTV.x264-XS


    General Information
    Format : Matroska
    File size : 4.83 GiB
    Duration : 2h 44mn
    Overall bit rate : 4 212 Kbps
    Writing application : Lavf51.12.1
    Writing library : Lavf51.12.1

    Video
    ID : 1
    Format : AVC
    Format/Info : Advanced Video Codec
    Format profile : [email protected]
    Format settings, CABAC : No
    Format settings, ReFrames : 1 frame
    Muxing mode : Container [email protected]
    Codec ID : V_MPEG4/ISO/AVC
    Duration : 2h 44mn
    Bit rate : 3 936 Kbps
    Width : 1 280 pixels
    Height : 720 pixels
    Display aspect ratio : 16:9
    Frame rate : 29.970 fps
    Color space : YUV
    Chroma subsampling : 4:2:0
    Bit depth : 8 bits
    Scan type : Progressive
    Bits/(Pixel*Frame) : 0.143
    Stream size : 4.51 GiB (93%)
    Language : English

    Audio
    ID : 2
    Format : AC-3
    Format/Info : Audio Coding 3
    Mode extension : CM (complete main)
    Codec ID : A_AC3
    Duration : 2h 44mn
    Bit rate mode : Constant
    Bit rate : 192 Kbps
    Channel(s) : 2 channels
    Channel positions : Front: L R
    Sampling rate : 48.0 KHz
    Bit depth : 16 bits
    Stream size : 225 MiB (5%)
    Language : English


    Code:
    FILESERVE
    http://www.fileserve.com/file/Cn49aW6/TNA.Victory.Road.2011.PPV.720p.HDTV.x264-XS.part1.rar
    http://www.fileserve.com/file/j2T3Bgq/TNA.Victory.Road.2011.PPV.720p.HDTV.x264-XS.part2.rar
    http://www.fileserve.com/file/VcAksRx/TNA.Victory.Road.2011.PPV.720p.HDTV.x264-XS.part3.rar
    http://www.fileserve.com/file/hZ7t9dT/TNA.Victory.Road.2011.PPV.720p.HDTV.x264-XS.part4.rar
    http://www.fileserve.com/file/PKaKCnJ/TNA.Victory.Road.2011.PPV.720p.HDTV.x264-XS.part5.rar
    http://www.fileserve.com/file/WUhNVnA/TNA.Victory.Road.2011.PPV.720p.HDTV.x264-XS.part6.rar
    http://www.fileserve.com/file/B2YYBhY/TNA.Victory.Road.2011.PPV.720p.HDTV.x264-XS.part7.rar
    http://www.fileserve.com/file/S3Qzhhp/TNA.Victory.Road.2011.PPV.720p.HDTV.x264-XS.part8.rar

 

 

Posting Permissions

  • You may not post new threads
  • You may not post replies
  • You may not post attachments
  • You may not edit your posts
  •