Results 1 to 1 of 1
  1. #1

    Default Inna + Pitbull - Videomegamix (2011)[Danny Stereo Dj]

    Follow us on Social Media







    Inna + Pitbull - Videomegamix (2011)[Danny Stereo Dj]

    INNA

    PITBULL


    INFO :
    Code:
    **INNA**
    Format                           : Matroska
    File size                        : 197 MiB
    Duration                         : 8mn 46s
    Overall bit rate                 : 3 132 Kbps
    Encoded date                     : UTC 2011-02-02 13:02:28
    Writing application              : mkvmerge v2.5.3 ('Boogie') built on Mar  7 2009 15:00:41
    Writing library                  : libebml v0.7.7 + libmatroska v0.8.1
    
    Video
    ID                               : 1
    Format                           : MPEG-4 Visual
    Format profile                   : [email protected]
    Format settings, BVOP            : No
    Format settings, QPel            : No
    Format settings, GMC             : No warppoints
    Format settings, Matrix          : Default (H.263)
    Codec ID                         : XVID
    Codec ID/Hint                    : XviD
    Duration                         : 8mn 46s
    Bit rate                         : 2 878 Kbps
    Width                            : 1 280 pixels
    Height                           : 720 pixels
    Display aspect ratio             : 16:9
    Frame rate                       : 29.970 fps
    Color space                      : YUV
    Chroma subsampling               : 4:2:0
    Bit depth                        : 8 bits
    Scan type                        : Progressive
    Compression mode                 : Lossy
    Bits/(Pixel*Frame)               : 0.104
    Stream size                      : 181 MiB (92%)
    Writing library                  : ZJMedia MPEG Encoder
    
    Audio
    ID                               : 2
    Format                           : MPEG Audio
    Format version                   : Version 1
    Format profile                   : Layer 3
    Codec ID                         : A_MPEG/L3
    Codec ID/Hint                    : MP3
    Duration                         : 8mn 46s
    Bit rate mode                    : Constant
    Bit rate                         : 192 Kbps
    Channel(s)                       : 2 channels
    Sampling rate                    : 44.1 KHz
    Compression mode                 : Lossy
    Stream size                      : 12.0 MiB (6%)
    
    Tracklist :
    1. Love
    2. 10 minutes
    3. Hot
    4. Amazing
    5. Deja Vu
    6. Sun Is Up
    
    **PITBULL**
    Format                           : Matroska
    File size                        : 136 MiB
    Duration                         : 8mn 15s
    Overall bit rate                 : 2 303 Kbps
    Encoded date                     : UTC 2011-02-22 09:38:49
    Writing application              : mkvmerge v2.5.3 ('Boogie') built on Mar  7 2009 15:00:41
    Writing library                  : libebml v0.7.7 + libmatroska v0.8.1
    
    Video
    ID                               : 1
    Format                           : MPEG-4 Visual
    Format profile                   : Advanced [email protected]
    Format settings, BVOP            : Yes
    Format settings, QPel            : No
    Format settings, GMC             : No warppoints
    Format settings, Matrix          : Default (H.263)
    Codec ID                         : XVID
    Codec ID/Hint                    : XviD
    Duration                         : 8mn 15s
    Bit rate                         : 2 065 Kbps
    Width                            : 1 280 pixels
    Height                           : 704 pixels
    Display aspect ratio             : 16:9
    Frame rate                       : 23.976 fps
    Color space                      : YUV
    Chroma subsampling               : 4:2:0
    Bit depth                        : 8 bits
    Scan type                        : Progressive
    Compression mode                 : Lossy
    Bits/(Pixel*Frame)               : 0.096
    Stream size                      : 122 MiB (90%)
    Writing library                  : XviD 1.2.1 (UTC 2008-12-04)
    
    Audio
    ID                               : 2
    Format                           : MPEG Audio
    Format version                   : Version 1
    Format profile                   : Layer 3
    Codec ID                         : A_MPEG/L3
    Codec ID/Hint                    : MP3
    Duration                         : 8mn 15s
    Bit rate mode                    : Constant
    Bit rate                         : 192 Kbps
    Channel(s)                       : 2 channels
    Sampling rate                    : 44.1 KHz
    Compression mode                 : Lossy
    Stream size                      : 11.3 MiB (8%)
    
    Tracklist :
    1. Hotel Room Service
    2. Maldito Alcohol
    3. I Know You Wan't Me
    4. Boom Boom
    5. Oye Baby
    
    Recovery : +5%
    Cover : No
    Compression method : Best
    Type archive : Rar (1x338MB)
    FILESERVE ENCRYPT LINKS
    ( DLC, Click'n'Load with JDownloader )

    Code:
     http://9.bb/IxM
    HELLSHARE ENCRYPT LINKS
    ( Weblinks, Click'n'Load, DLC, CCF, RSDF )

    Code:
     http://u.bb/6yM
    ...copy link in browser, wait 5s, click on "SKIP AD", click on "ClickŽnŽLoad" or other and download...

    >>LINKS ARE INTERCHANGEABLE<<
    nO pASS
    ...YOU CAN SHARE MY UPLOADS...

 

 

Posting Permissions

  • You may not post new threads
  • You may not post replies
  • You may not post attachments
  • You may not edit your posts
  •