Results 1 to 1 of 1
  1. #1
    Join Date
    Oct 2010

    Thumbs up Battle Los Angeles 2011 CAM XVID

    Follow us on Social Media


    File Size:1.10gb

    ID : 0
    Format : MPEG-4 Visual
    Format profile : Advanced [email protected]
    Format settings, BVOP : Yes
    Format settings, QPel : No
    Format settings, GMC : No warppoints
    Format settings, Matrix : Custom
    Codec ID : XVID
    Codec ID/Hint : XviD
    Duration : 1h 50mn
    Bit rate : 1 126 Kbps
    Width : 680 pixels
    Height : 314 pixels
    Display aspect ratio : 2.2:1
    Frame rate : 25.000 fps
    Color space : YUV
    Chroma subsampling : 4:2:0
    Bit depth : 8 bits
    Scan type : Progressive
    Bits/(Pixel*Frame) : 0.211
    Stream size : 44.0 MiB (4%)
    Writing library : XviD 1.2.1 (UTC 2008-12-04)

    ID : 1
    Format : MPEG Audio
    Codec ID : 55
    Codec ID/Hint : MP3
    Duration : 1h 50mn
    Bit rate : 128 Kbps
    Channel(s) : 2 channels
    Sampling rate : 44.1 KHz
    Stream size : 101 MiB (9%)
    Alignment : Aligned on interleaves

    Release notes:Video:ELEKTRI4KA thanks


    Okay here we go with the first cam for Batlle La the cam it's self was very good had slight issues was dull and kinda blurry dark scenes had a red glare so adjusted colors and sharpened a tad usual video filters also towards the last 30 minutes or so a big ass head pops up in and out till ending

    wasn't that distracting so i didn't bother cropping it the dark scenes had some issues as well but not to many of them so no biggie.

    On to audio our audio was pretty decent i choose to lower bass so you can hear the vocals better more important in this movie to pay attention so the real loud effects scenes you will probably hear some light static no biggie.
    Also i had to cut about 1 minute from the movie due to our audio missing about 50 minutes in but you don't miss much and towards end about last 20 minutes audio goes oos for about a minute due to russian source missing a few seconds
    but once again only for a minute all in all very watchable 2 samples are included showig different audio so no need to ***** if you don't like it wait for line which if noone gets we will do a v2 with line next weekend till then enjoy.


    Release Date:2011





Posting Permissions

  • You may not post new threads
  • You may not post replies
  • You may not post attachments
  • You may not edit your posts