Results 1 to 1 of 1
  1. #1

    Thumbs up DJ Panduro - The Sheepmix Party (Videomix)

    Follow us on Social Media







    DJ Panduro - The Sheepmix Party (Videomix)[Mp4]



    INFO :
    Code:
    Format                           : MPEG-4
    Format profile                   : Base Media
    Codec ID                         : isom
    File size                        : 974 MiB
    Duration                         : 32mn 52s
    Overall bit rate                 : 4 144 Kbps
    Encoded date                     : UTC 2011-02-26 08:44:15
    Tagged date                      : UTC 2011-02-26 08:44:15
    Writing application              : Lavf51.12.1
    
    Video
    ID                               : 1
    Format                           : AVC
    Format/Info                      : Advanced Video Codec
    Format profile                   : [email protected]
    Format settings, CABAC           : No
    Format settings, ReFrames        : 1 frame
    Codec ID                         : avc1
    Codec ID/Info                    : Advanced Video Coding
    Duration                         : 32mn 52s
    Bit rate mode                    : Variable
    Bit rate                         : 4 012 Kbps
    Width                            : 1 280 pixels
    Height                           : 720 pixels
    Display aspect ratio             : 16:9
    Frame rate mode                  : Constant
    Frame rate                       : 25.000 fps
    Color space                      : YUV
    Chroma subsampling               : 4:2:0
    Bit depth                        : 8 bits
    Scan type                        : Progressive
    Bits/(Pixel*Frame)               : 0.174
    Stream size                      : 943 MiB (97%)
    Encoded date                     : UTC 2011-02-26 08:44:15
    Tagged date                      : UTC 2011-02-26 08:44:15
    
    Audio
    ID                               : 2
    Format                           : AAC
    Format/Info                      : Advanced Audio Codec
    Format profile                   : LC
    Codec ID                         : 40
    Duration                         : 32mn 52s
    Bit rate mode                    : Variable
    Bit rate                         : 128 Kbps
    Channel(s)                       : 2 channels
    Channel positions                : Front: L R
    Sampling rate                    : 44.1 KHz
    Compression mode                 : Lossy
    Stream size                      : 30.1 MiB (3%)
    Encoded date                     : UTC 2011-02-26 08:44:15
    Tagged date                      : UTC 2011-02-26 08:44:15
    
    Recovery : +5%
    Cover : Yes
    Compression method : Best
    Type archive : Rar (1x977MB)
    
    Tracklist:
    1.Intro
    2.Kaoma - Lambada
    3.Pet Shop Boys - Always On My Mind
    4.Boney M - Daddy Cool
    5.Dr. Alban - Sing Hallelujah
    6.Mory Kante - Ye Ke Ye Ke
    7.Duran Duran - The Wild Boys
    8.Captain Hollywood Project - More and more
    9.Modjo - Lady
    10.Depeche Mode - Master And Servant
    11.Eddy Grant - Gimme Hope Jo'anna
    12.Robin Gibb - Juliet
    13.The Black Eyed Peas vs. Boston - I Got More Than A Feeling
    14.Faithless - Insomnia
    15. Dead Or Alive - You Spin Me Round (Like A Record)
    16.Beatfreakz - Somebodys Watching Me
    17.ATC - Around The World (La La La La La)
    18.ATB - 9pm (Till I Come)
    19.Real Life - Send Me An Angel
    20.Sash - Ecuador
    21.Bellini - Samba de Janeiro
    22.Dr. Alban - Look Who's Talking
    23.Elton John - I Don't Wanna Go On With You Like That
    24.Tony Christie - (Is This The Way To) Amarillo
    25.Boney M - Gotta Go Home
    26.Abba - Lay All Your Love on Me
    27.Cappella - U Got 2 Let The Music
    28.Tiffany - I Think We're Alone
    29.Folklorista - Those Were The Days
    FILESERVE ENCRYPT LINKS
    ( Click'n'Load with JDownloader )

    Code:
    http://u.bb/6q1
    HELLSHARE ENCRYPT LINKS
    ( Weblinks, Click'n'Load, DLC, CCF, RSDF )

    Code:
    http://u.bb/6q2
    ...copy link in browser, wait 5s, click on "SKIP AD", click on "ClickŽnŽLoad" or other and download...

    >>LINKS ARE INTERCHANGEABLE<<
    nO pASS
    ...YOU CAN SHARE MY UPLOADS...

 

 

Posting Permissions

  • You may not post new threads
  • You may not post replies
  • You may not post attachments
  • You may not edit your posts
  •