Results 1 to 1 of 1
  1. #1
    Super Member www.desirulez.net
    Join Date
    Oct 2010
    Posts
    181

    T

    Default Surrogates (2009) BRRip.720p - Dual Audio{Eng-Hindi}

    Follow us on Social Media







    Surrogates (2009) BRRip.720p - Dual Audio{Eng-Hindi} -





    -: General :-
    Format : AVI
    Format/Info : Audio Video Interleave
    Format profile : OpenDML
    File size : 675 MiB
    Duration : 1h 28mn
    Language : Dual Audio
    Overall bit rate : 1 064 Kbps
    Writing application : AVI-Mux GUI 1.17.8.3, Feb 16 201019:42:50
    Original Source : 1080p BluRay
    -: Genre :-
    Action | Sci-Fi | Thriller


    Code:
    Code:
    http://www.imdb.com/title/tt0986263/

    Video
    Format : MPEG-4 Visual
    Format profile : Advanced [email protected] Format settings,
    BVOP : Yes Format settings,
    QPel : No Format settings,
    GMC : No warppoints Format settings,
    Matrix : Default (H.263)
    Codec ID : XVID
    Codec ID/Hint : XviD
    Duration : 1h 28mn
    Bit rate : 899 Kbps
    Width : 720 pixels
    Height :304 pixels
    Display aspect ratio : 2.35:1
    Frame rate : 23.976
    fps Resolution : 8 bits
    Colorimetry : 4:2:0
    Scan type : Progressive Bits/(Pixel*Frame) : 0.171
    Stream size : 570 MiB (84%)
    Writing library : XviD 1.2.1 (UTC 2008-12-04)



    Audio #1 :
    Hindi Format : MPEG
    Audio Format version : Version 1
    Format profile : Layer 3
    Mode : Joint stereo
    Format_Settings_ModeExtension : MS Stereo
    Codec ID : 55
    Codec ID/Hint :
    MP3 Duration : 1h 28mn
    Bit rate mode :
    Constant Bit rate : 96.0 Kbps Channel(s) : 2 channels Sampling rate : 32.0 KHz Stream size : 60.8 MiB (9%)
    Alignment : Aligned on interleaves Interleave,
    duration : 781 ms (18.73 video frames) Interleave,
    preload duration : 216 ms




    Audio #2 : English
    Format : AC-3
    Format/Info :
    Audio Coding 3
    Codec ID : 2000
    Duration : 1h 28mn
    Bit rate mode : Constant Bit rate : 64.0 Kbps Channel(s) : 2 channels Channel positions : L R
    Sampling rate : 48.0 KHz
    Stream size : 40.6 MiB (6%)
    Alignment : Aligned on interleaves Interleave,
    duration : 64 ms (1.53 video frames) Interleave,
    preload duration : 192 ms



















    Code:
    http://www.fileserve.com/file/KaF5uvD
    http://www.fileserve.com/file/ud5JA25
    http://www.fileserve.com/file/T2Mqjv7
    http://www.fileserve.com/file/6HMKfqY
    http://www.fileserve.com/file/gS3WveY
    http://www.fileserve.com/file/6wCGDbd
    http://www.fileserve.com/file/ZQscmZH

 

 

Posting Permissions

  • You may not post new threads
  • You may not post replies
  • You may not post attachments
  • You may not edit your posts
  •