Results 1 to 1 of 1
  1. #1
    Super Member www.desirulez.net
    Join Date
    Oct 2010
    Posts
    181

    T

    Default Outlander (2008) BRRip-Hindi-Dubbed

    Follow us on Social Media







    Outlander (2008) BRRip-Hindi-Dubbed


    Code:
     	PLOT :  In 709 DC, in the Iron Age, a spacecraft crashes in the Viking kingdom of 
    Herot, Norway, and the pilot Kainan survives. He turns the beacon on; learns the 
    language and culture of the planet using a machine; and finds that the predator, 
    Moorwen, that he was transporting, had escaped. While chasing the alien monster, he finds a village completely destroyed and is arrested by the warrior Wulfric, believing that he killed the locals - Kainan is brought to Herot as a prisoner.
    
    James Caviezel	 ...	Kainan
    Sophia Myles	 ... Freya
    Jack Huston	 ...	Wulfric
    John Hurt	 ...	Rothgar
    Cliff Saunders	 ...	Boromir
    Patrick Stevenson	 ...	Unferth
    Aidan Devine	 ...	Einar
    Ron Perlman	 ...	Gunnar
    Bailey Maughan	 ...	Erick
    John Nelles	 ...	Donal (as John E. Nelles)
    James Preston Rogers	 ...	Bjorn (as James Rogers)
    Scott Owen	 ...	Aethril
    Petra Prazak	 ...	Mara
    Owen Pattison	 ...	Galen, son of Kainen
    
    General
    Format : Matroska
    File size : 573 MiB
    Duration : 1h 54mn
    Overall bit rate : 697 Kbps
    Encoded date : UTC 2010-10-04 11:44:20
    Writing application : mkvmerge v2.7.0 ('Do It Again') built on Apr 15 
    
    2009 00:27:10
    Writing library : libebml v0.7.7 + libmatroska v0.8.1
    
    
    Code:
    http://www.imdb.com/title/tt0462465/
    Video ID : 1 Format : AVC Format/Info : Advanced Video Codec Format profile : [email protected] Format settings, CABAC : Yes Format settings, ReFrames : 5 frames Muxing mode : Container [email protected] Codec ID : V_MPEG4/ISO/AVC Duration : 1h 54mn Bit rate : 509 Kbps Width : 1 280 pixels Height : 544 pixels Display aspect ratio : 2.35:1 Original display aspect ratio : 2.35:1 Frame rate : 24.000 fps Color space : YUV Chroma subsampling : 4:2:0 Bit depth : 8 bits Scan type : Progressive Bits/(Pixel*Frame) : 0.030 Stream size : 404 MiB (70%) Writing library : x264 core 67 r1145M d2e1e1c Audio ID : 2 Format : MPEG Audio Format version : Version 1 Format profile : Layer 2 Codec ID : A_MPEG/L2 Codec ID/Hint : MP2 Duration : 1h 54mn Bit rate mode : Constant Bit rate : 192 Kbps Channel(s) : 2 channels Sampling rate : 44.1 KHz Video delay : 1ms Stream size : 158 MiB (28%) Title : Hindi~Saurabh~ Language : Hindi




    .





    Code:
    http://www.fileserve.com/file/r69MsEm/Outlander_2008_BRRip_720p_Hindi.warez4pc.org.part1.rar
    http://www.fileserve.com/file/m5mkWWt/Outlander_2008_BRRip_720p_Hindi.warez4pc.org.part2.rar
    http://www.fileserve.com/file/wxTdXhw/Outlander_2008_BRRip_720p_Hindi.warez4pc.org.part3.rar

 

 

Posting Permissions

  • You may not post new threads
  • You may not post replies
  • You may not post attachments
  • You may not edit your posts
  •