Results 1 to 1 of 1
  1. #1
    Super Member www.desirulez.net
    Join Date
    Oct 2010
    Posts
    181

    T

    Default FLOOD-2010-[Dual Audio]

    Follow us on Social Media







    FLOOD-2010-[Dual Audio]



    Video Source :- English HD Dvdrip
    Audio Source :- Hindi Dvdscrrip @ SDR


    Code:
    General
    Complete name                    : FLOOD 2010 Dual Audio HQ  Best Quality by Arihant.mkv
    Format                           : Matroska
    File size                        : 774 MiB
    Duration                         : 1h 46mn
    Overall bit rate                 : 1 021 Kbps
    Writing library                  : libebml v0.8.0 + libmatroska v0.9.0
    
    Video
    ID                               : 2
    Format                           : MPEG-4 Visual
    Format profile                   : Advanced [email protected]
    Format settings, BVOP            : Yes
    Format settings, QPel            : No
    Format settings, GMC             : No warppoints
    Format settings, Matrix          : Default (H.263)
    Codec ID                         : XVID
    Codec ID/Hint                    : XviD
    Duration                         : 1h 46mn
    Bit rate                         : 752 Kbps
    Width                            : 576 pixels
    Height                           : 320 pixels
    Display aspect ratio             : 16:9
    Frame rate                       : 25.000 fps
    Resolution                       : 8 bits
    Colorimetry                      : 4:2:0
    Scan type                        : Progressive
    Bits/(Pixel*Frame)               : 0.163
    Stream size                      : 570 MiB (74%)
    Writing library                  : XviD 1.1.2 (UTC 2006-11-01)
    
    Audio #1
    ID                               : 1
    Format                           : AC-3
    Format/Info                      : Audio Coding 3
    Format_Settings_ModeExtension    : CM (complete main)
    Codec ID                         : A_AC3
    Duration                         : 1h 46mn
    Bit rate mode                    : Constant
    Bit rate                         : 128 Kbps
    Channel(s)                       : 2 channels
    Channel positions                : Front: L R
    Sampling rate                    : 48.0 KHz
    Video delay                      : 32ms
    Stream size                      : 97.1 MiB (13%)
    
    Audio #2
    ID                               : 3
    Format                           : MPEG Audio
    Format version                   : Version 1
    Format profile                   : Layer 3
    Mode                             : Joint stereo
    Format_Settings_ModeExtension    : MS Stereo
    Codec ID                         : A_MPEG/L3
    Codec ID/Hint                    : MP3
    Duration                         : 1h 46mn
    Bit rate mode                    : Variable
    Bit rate                         : 120 Kbps
    Nominal bit rate                 : 128 Kbps
    Channel(s)                       : 2 channels
    Sampling rate                    : 48.0 KHz
    Stream size                      : 91.4 MiB (12%)















    Code:
    http://www.fileserve.com/file/9ZmBK95
    http://www.fileserve.com/file/wBubDdr
    http://www.fileserve.com/file/aAG9m7U
    http://www.fileserve.com/file/NPqcQkt
    http://www.fileserve.com/file/eNYdJed
    http://www.fileserve.com/file/XG9sTHK
    http://www.fileserve.com/file/84NXURE
    http://www.fileserve.com/file/d4kWYRE


 

 

Posting Permissions

  • You may not post new threads
  • You may not post replies
  • You may not post attachments
  • You may not edit your posts
  •