Results 1 to 1 of 1
  1. #1
    Super Member www.desirulez.net
    Join Date
    Oct 2010
    Posts
    181

    T

    Default Suba se le kar sham tak+screenshots excellent quality

    Follow us on Social Media







    SUBA SE LE KAR SHAM TAK+SCREENSHOTS EXCELLENT QUALITY

    Code:
    General
    Complete name                    : SUBA SE LE KAR SHAM TAK+SCREENSHOTS EXCELLENT QUALITY.mkv
    Format                           : Matroska
    File size                        : 155 MiB
    Duration                         : 5mn 48s
    Overall bit rate                 : 3 730 Kbps
    Writing application              : AVI-Mux GUI 1.17.7, Aug  8 2006  20:59:17
    Writing library                  : matroska muxer by Alexander Noe, build date Aug  8 2006
    
    Video
    ID                               : 1
    Format                           : AVC
    Format/Info                      : Advanced Video Codec
    Format profile                   : [email protected]
    Format settings, CABAC           : Yes
    Format settings, ReFrames        : 1 frame
    Format settings, GOP             : M=1, N=10
    Muxing mode                      : Container [email protected]
    Codec ID                         : V_MPEG4/ISO/AVC
    Duration                         : 5mn 48s
    Bit rate                         : 3 500 Kbps
    Width                            : 1 280 pixels
    Height                           : 656 pixels
    Display aspect ratio             : 1.951
    Frame rate                       : 23.976 fps
    Color space                      : YUV
    Chroma subsampling               : 4:2:0
    Bit depth                        : 8 bits
    Scan type                        : Progressive
    Bits/(Pixel*Frame)               : 0.174
    Stream size                      : 143 MiB (92%)
    Writing library                  : x264 core 68 r1183M f21daff
    Encoding settings                : cabac=1 / ref=1 / deblock=1:-1:-1 / analyse=0x1:0x111 / me=hex / subme=6 / psy_rd=1.0:0.0 / mixed_ref=0 / me_range=16 / chroma_me=1 / trellis=0 / 8x8dct=0 / cqm=0 / deadzone=21,11 / chroma_qp_offset=-2 / threads=3 / nr=0 / decimate=1 / mbaff=0 / bframes=0 / keyint=250 / keyint_min=25 / scenecut=40 / rc=2pass / bitrate=3500 / ratetol=1.0 / qcomp=0.60 / qpmin=10 / qpmax=51 / qpstep=4 / cplxblur=20.0 / qblur=0.5 / ip_ratio=1.40 / aq=1:1.00
    Language                         : English
    
    Audio
    ID                               : 2
    Format                           : AC-3
    Format/Info                      : Audio Coding 3
    Mode extension                   : CM (complete main)
    Codec ID                         : A_AC3
    Duration                         : 5mn 48s
    Bit rate mode                    : Constant
    Bit rate                         : 224 Kbps
    Channel(s)                       : 2 channels
    Channel positions                : Front: L R
    Sampling rate                    : 48.0 KHz
    Video delay                      : 6ms
    Stream size                      : 9.31 MiB (6%)










    Code:
    http://www.fileserve.com/file/6tdQU2S

 

 

Posting Permissions

  • You may not post new threads
  • You may not post replies
  • You may not post attachments
  • You may not edit your posts
  •