Results 1 to 1 of 1
  1. #1
    Super Member www.desirulez.net
    Join Date
    Oct 2010
    Posts
    181

    T

    Default Bheegay hont tery new version other language too hotest ever

    Follow us on Social Media







    Bheegay hont tery new version other language too hotest ever
    Code:
    General
    Complete name                    : BHEEGAY HONT TERY NEW VERSION OTHER LANGUAGE TOO HOTEST EVER SEEN+SCREENSHOTS.avi
    Format                           : AVI
    Format/Info                      : Audio Video Interleave
    Format profile                   : OpenDML
    File size                        : 87.0 MiB
    Duration                         : 3mn 55s
    Overall bit rate                 : 3 104 Kbps
    Writing application              : AVI-Mux GUI 1.17.7, Aug  8 2006  20:59:17
    
    Video
    ID                               : 0
    Format                           : MPEG-4 Visual
    Format settings, BVOP            : Yes
    Format settings, QPel            : No
    Format settings, GMC             : No warppoints
    Format settings, Matrix          : Default (H.263)
    Muxing mode                      : Packed bitstream
    Codec ID                         : DX50
    Codec ID/Hint                    : DivX 5
    Duration                         : 3mn 55s
    Bit rate                         : 3 032 Kbps
    Width                            : 688 pixels
    Height                           : 304 pixels
    Display aspect ratio             : 2.25:1
    Frame rate                       : 29.970 fps
    Color space                      : YUV
    Chroma subsampling               : 4:2:0
    Bit depth                        : 8 bits
    Scan type                        : Progressive
    Bits/(Pixel*Frame)               : 0.484
    Stream size                      : 85.0 MiB (98%)
    Writing library                  : DivX 6.8.5 (UTC 2009-08-20)
    
    Audio
    ID                               : 1
    Format                           : MPEG Audio
    Format version                   : Version 1
    Format profile                   : Layer 3
    Codec ID                         : 55
    Codec ID/Hint                    : MP3
    Duration                         : 3mn 54s
    Bit rate mode                    : Variable
    Bit rate                         : 60.1 Kbps
    Nominal bit rate                 : 64.0 Kbps
    Channel(s)                       : 1 channel
    Sampling rate                    : 48.0 KHz
    Stream size                      : 1.68 MiB (2%)
    Alignment                        : Aligned on interleaves
    Interleave, duration             : 24 ms (0.72 video frame)
    Interleave, preload duration     : 252 ms
    Title                            : VTS_01_1 T80 2_0ch 448Kbps DELAY 0ms
    Writing library                  : LAME3.98r
    Encoding settings                : -m m -V 4 -q 2 -lowpass 16.5 --abr 64

























    Code:
    http://www.fileserve.com/file/mRWwrFP

 

 

Posting Permissions

  • You may not post new threads
  • You may not post replies
  • You may not post attachments
  • You may not edit your posts
  •