Results 1 to 1 of 1
  1. #1

    Thumbs up DVJ Danny Stereo - Dance Session Vol. 7

    Follow us on Social Media







    DVJ Danny Stereo - Dance Session Vol. 7



    INFO :
    Code:
    Format                           : AVI
    Format/Info                      : Audio Video Interleave
    Format profile                   : OpenDML
    File size                        : 1.24 GiB
    Duration                         : 48mn 8s
    Overall bit rate                 : 3 689 Kbps
    
    Video
    ID                               : 0
    Format                           : MPEG-4 Visual
    Format profile                   : Advanced [email protected]
    Format settings, BVOP            : Yes
    Format settings, QPel            : No
    Format settings, GMC             : No warppoints
    Format settings, Matrix          : Default (H.263)
    Muxing mode                      : Packed bitstream
    Codec ID                         : XVID
    Codec ID/Hint                    : XviD
    Duration                         : 48mn 8s
    Bit rate                         : 2 975 Kbps
    Width                            : 1 280 pixels
    Height                           : 720 pixels
    Display aspect ratio             : 16:9
    Frame rate                       : 30.000 fps
    Color space                      : YUV
    Chroma subsampling               : 4:2:0
    Bit depth                        : 8 bits
    Scan type                        : Progressive
    Compression mode                 : Lossy
    Bits/(Pixel*Frame)               : 0.108
    Stream size                      : 1.00 GiB (81%)
    Writing library                  : XviD 1.2.1 (UTC 2008-12-04)
    
    Audio
    ID                               : 1
    Format                           : PCM
    Format settings, Sign            : Unsigned
    Codec ID                         : 1
    Codec ID/Hint                    : Microsoft
    Duration                         : 48mn 8s
    Bit rate mode                    : Constant
    Bit rate                         : 705.6 Kbps
    Channel(s)                       : 2 channels
    Sampling rate                    : 44.1 KHz
    Bit depth                        : 8 bits
    Stream size                      : 243 MiB (19%)
    Interleave, duration             : 500 ms (15.00 video frames)
    
    
    Recovery : +5%
    Cover : No
    Compression method : Best
    Type archive : Rar (1x957MB + 1x238MB)
    
    Tracklist:
    #SORRY NO TRACKLIST#
    FILESERVE ENCRYPT LINKS
    ( Click'n'Load with JDownloader )

    Code:
    http://u.bb/6UW
    HELLSHARE ENCRYPT LINKS
    ( Weblinks, Click'n'Load, DLC, CCF, RSDF )

    Code:
    http://u.bb/6Ub
    ...copy link in browser, wait 5s, click on "SKIP AD", click on "ClickŽnŽLoad" or other and download...

    >>LINKS ARE INTERCHANGEABLE<<
    nO pASS
    ...YOU CAN SHARE MY UPLOADS...

 

 

Posting Permissions

  • You may not post new threads
  • You may not post replies
  • You may not post attachments
  • You may not edit your posts
  •