Results 1 to 1 of 1
  1. #1
    Moderator www.desirulez.net
    Join Date
    Jun 2010
    Location
    Dr
    Posts
    2,997

    T

    Default Rehna Hein Tere Dil Mein (2001) 1/3 Dvd Rip

    Follow us on Social Media









    Genre............: Musical
    Year.............: 2001
    Imdb Link........: http://www.imdb.com/title/tt0299108/
    Source...........: DVD9


    Format : AVI
    Format/Info : Audio Video Interleave
    File size : 1.36 GB
    Duration : 1h 17mn
    Overall bit rate : 1 269 Kbps
    Writing application : VirtualDubMod 1.5.4.1 (build 2178/release)
    Writing library : VirtualDubMod build 2178/release

    Video
    ID : 0
    Format : MPEG-4 Visual
    Format profile : Advanced [email protected]
    Format settings, Matrix : Custom
    Codec ID : XVID
    Codec ID/Hint : XviD
    Bit rate : 814 Kbps
    Width : 576 pixels
    Height : 256 pixels
    Display aspect ratio : 2.25:1
    Frame rate : 23.976 fps
    Color space : YUV
    Chroma subsampling : 4:2:0
    Bit depth : 8 bits
    Scan type : Progressive
    Bits/(Pixel*Frame) : 0.230
    Stream size : 449 MiB (64%)
    Writing library : XviD 1.0.3 (UTC 2004-12-20)

    Audio
    ID : 1
    Format : AC-3
    Format/Info : Audio Coding 3
    Mode extension : CM (complete main)
    Codec ID : 2000
    Bit rate mode : Constant
    Bit rate : 448 Kbps
    Channel(s) : 5 channels
    Channel positions : Front: L C R, Side: L R
    Sampling rate : 48.0 KHz
    Bit depth : 16 bits
    Stream size : 247 MiB (35%)
    Alignment : Split accross interleaves
    Interleave, duration : 96 ms (2.30 video frames)
    Interleave, preload duration : 96 ms
    Language : Hindi






    DOWNLOAD:
    Code:
    http://www.fileserve.com/file/kXJmGzS
    http://www.fileserve.com/file/FHzPrVu
    Mirror:
    Code:
    http://cramit.in/uwlicd3szwk8
    http://cramit.in/1j8cvd50umw4

 

 

Posting Permissions

  • You may not post new threads
  • You may not post replies
  • You may not post attachments
  • You may not edit your posts
  •