Results 1 to 1 of 1
  1. #1
    dR Contributor www.desirulez.net
    Join Date
    Jan 2011
    Posts
    220

    T

    Thumbs up Prince of Persia (2010) 720p BRRip[Dual-Audio][Eng-Hindi]

    Follow us on Social Media









    Title............................: Prince of Persia The Sands of Time 720P BRRip[Dual-Audio][Eng-Hindi]
    Genre............................: Action | Adventure | Fantasy | Romance
    Directer.........................: Mike Newell
    Writer...........................: Boaz Yakin / Doug Miro & Carlo Bernard
    IMDB.............................: Green Zone (2010) - IMDb
    year.............................: 28 May 2010 (India)
    User Rating......................: 6.9/10 35,352 votes
    VIDEO Source.....................: Prince of Persia The Sands of Time 1080p Bluray x264-CBGB
    File size........................: 2.27 GiB
    Run time.........................: 1h 51mn
    Languages........................: English.Hindi
    Subtittle........................: English
    Ripper...........................: BONIIN[BOW]








    Video
    ID : 1
    Format : AVC-Matroska
    Format/Info : Advanced Video Codec
    Format profile : [email protected]
    Format settings, CABAC : Yes
    Format settings, ReFrames : 4 frames
    Muxing mode : Container [email protected]
    Codec ID : V_MPEG4/ISO/AVC
    Duration : 1h 51mn
    Bit rate : 2 158 Kbps
    Nominal bit rate : 2 124 Kbps
    Overall bit rate : 2 920 Kbps
    Width : 1 280 pixels
    Height : 528 pixels
    Display aspect ratio : 2.40:1
    Frame rate : 25.000 fps
    Original frame rate : 23.976 fps
    Resolution : 8 bits
    Colorimetry : 4:2:0
    Scan type : Progressive
    Bits/(Pixel*Frame) : 0.128
    Stream size : 1.68 GiB (74%)
    Title : RIPPER~BONIIN
    Writing library : x264 core 104 r1677 19df41a
    Encoding settings : cabac=1 / ref=4 / deblock=1:0:0
    Language : English
    Encoded date : UTC 2010-09-05 10:40:46
    Writing application : mkvmerge v3.3.0 ('Language') built on Mar 24 2010 14:59:24
    Writing library : libebml v0.8.0 + libmatroska v0.9.0

    Audio #1
    ID : 2
    Format : AC-3
    Format/Info : Audio Coding 3
    Codec ID : A_AC3
    Duration : 1h 51mn
    Bit rate mode : Constant
    Bit rate : 448 Kbps
    Channel(s) : 6 channels
    Channel positions : Front: L C R, Side: L R, LFE
    Sampling rate : 48.0 KHz
    Video delay : 1s 0ms
    Stream size : 356 MiB (15%)
    Title : RIPPER~BONIIN
    Language : English

    Audio #2
    ID : 3
    Format : AC-3
    Format/Info : Audio Coding 3
    Codec ID : A_AC3
    Duration : 1h 51mn
    Bit rate mode : Constant
    Bit rate : 256 Kbps
    Channel(s) : 2 channels
    Channel positions : Front: L R
    Sampling rate : 48.0 KHz
    Video delay : 275ms
    Stream size : 204 MiB (9%)
    Title : RIPPER~BONIIN
    Language : Hindi









    Download Links:-

    Code:
    http://www.fileserve.com/file/yeqWMNg/Prince.of.Persia.The.Sands.of.Time.720P.BRRip.Dual.Audio.Eng.Hindi.By.Love_Hacker.mkv.001
    http://www.fileserve.com/file/jvcefch/Prince.of.Persia.The.Sands.of.Time.720P.BRRip.Dual.Audio.Eng.Hindi.By.Love_Hacker.mkv.002
    http://www.fileserve.com/file/fjtscze/Prince.of.Persia.The.Sands.of.Time.720P.BRRip.Dual.Audio.Eng.Hindi.By.Love_Hacker.mkv.003
    Code:
    http://www.duckload.com/download/3308227/Prince.of.Persia.The.Sands.of.Time.720P.BRRip.Dual.Audio.Eng.Hindi.By.Love_Hacker.mkv
    http://www.duckload.com/download/3308223/Prince.of.Persia.The.Sands.of.Time.720P.BRRip.Dual.Audio.Eng.Hindi.By.Love_Hacker.srt

 

 

Posting Permissions

  • You may not post new threads
  • You may not post replies
  • You may not post attachments
  • You may not edit your posts
  •