Results 1 to 1 of 1
  1. #1
    Administrators www.desirulez.net
    Join Date
    Mar 2010
    Location
    Sea Side
    Posts
    9,872

    T

    Default The Book Of Eli ~ 2010 DTH Rip Hindi Dubbed Xvid 870MB

    Follow us on Social Media















    Screenshots:





























    Code:
    Release Info:
    
    
    Format                           : AVI
    Format/Info                      : Audio Video Interleave
    Format profile                   : OpenDML
    File size                        : 867 MiB
    Duration                         : 1h 52mn
    Overall bit rate                 : 1 080 Kbps
    Writing application              : AVI-Mux GUI 1.17.8.3, Feb 16 201019:42:50
    
    
    
    Video:
    
    ID                               : 0
    Format                           : MPEG-4 Visual
    Format profile                   : [email protected]
    Format settings, BVOP            : Yes
    Format settings, QPel            : No
    Format settings, GMC             : No warppoints
    Format settings, Matrix          : Default (H.263)
    Codec ID                         : XVID
    Codec ID/Hint                    : XviD
    Duration                         : 1h 52mn
    Bit rate                         : 948 Kbps
    Width                            : 512 pixels
    Height                           : 384 pixels
    Display aspect ratio             : 4:3
    Frame rate                       : 23.976 fps
    Resolution                       : 24 bits
    Colorimetry                      : 4:2:0
    Scan type                        : Progressive
    Bits/(Pixel*Frame)               : 0.201
    Stream size                      : 761 MiB (88%)
    Writing library                  : XviD 1.2.1 (UTC 2008-12-04)
    
    
    
    Audio:
    
    ID                               : 1
    Format                           : MPEG Audio
    Format version                   : Version 1
    Format profile                   : Layer 3
    Codec ID                         : 55
    Codec ID/Hint                    : MP3
    Duration                         : 1h 52mn
    Bit rate mode                    : Constant
    Bit rate                         : 128 Kbps
    Channel(s)                       : 1 channel
    Sampling rate                    : 44.1 KHz
    Resolution                       : 16 bits
    Stream size                      : 103 MiB (12%)
    Alignment                        : Aligned on interleaves
    Interleave, duration             : 777 ms (18.63 video frames)
    Interleave, preload duration     : 208 ms
    Title                            : 1_all
    Writing library                  : LAME3.98r
    Encoding settings                : -m m -V 4 -q 2 -lowpass 20.5 -b 128





    Sample:


    Code:
    http://www.mediafire.com/download.php?kdodgv6h19p66fj






    Download Moviee:



    Code:
    http://x7.to/ewx7qa
    Code:
    http://cramit.in/cqjq8gjxg5x7
    Code:
    http://www.duckload.com/download/3302869/The_Book_Of_Eli_2010_DTH_Rip_Hindi_Dubbed_Xvid_870MB_Prince_-Team_TDK.avi
    Code:
    http://filehook.com/7gqt53mkic7j/The_Book_Of_Eli_2010_DTH_Rip_Hindi_Dubbed_Xvid_870MB_Prince_-Team_TDK.avi.html
    Code:
    http://www.fileserve.com/file/B6NMRVQ/The_Book_Of_Eli_2010_DTH_Rip_Hindi_Dubbed_Xvid_870MB_Prince_-Team_TDK.avi
    Code:
    http://oron.com/15gx12r6dlyo/The_Book_Of_Eli_2010_DTH_Rip_Hindi_Dubbed_Xvid_870MB_Prince_-Team_TDK.avi.html
    Code:
    http://pyramidfiles.com/fqz9l3wwsjza
    Code:
    http://skipfile.com/1ipkbx8cjy1g/The_Book_Of_Eli_2010_DTH_Rip_Hindi_Dubbed_Xvid_870MB_Prince_-Team_TDK.avi.html
    Code:
    http://www.usershare.net/880mxxtgaqqf

 

 

Posting Permissions

  • You may not post new threads
  • You may not post replies
  • You may not post attachments
  • You may not edit your posts
  •