Results 1 to 1 of 1
  1. #1
    dR Dazzler www.desirulez.net
    Join Date
    Mar 2009
    Posts
    1,518

    T

    Default UFC.127.iNTERNAL.PDTV.XviD-iND

    Follow us on Social Media







    UFC.127.iNTERNAL.PDTV.XviD-iND



    Code:
    Input #0, avi, from 'UFC.127.iNTERNAL.PDTV.XviD-iND.avi':
      Duration: 02:57:56.04, start: 0.000000, bitrate: 1173 kb/s
        Stream #0.0: Video: mpeg4, yuv420p, 640x352 [PAR 1:1 DAR 20:11], 25 tbr, 25 tbn, 25 tbc
        Stream #0.1: Audio: mp3, 48000 Hz, 2 channels, s16, 128 kb/s
    Code:
    http://bitshare.com/files/gyslpj18/UFC.127.iNTERNAL.PDTV.XviD-iND.part3.rar.html
    http://bitshare.com/files/cf6jb65w/UFC.127.iNTERNAL.PDTV.XviD-iND.part2.rar.html
    http://bitshare.com/files/2sp0pue9/UFC.127.iNTERNAL.PDTV.XviD-iND.part1.rar.html
    Code:
    http://www.fileserve.com/file/jH57XkA
    http://www.fileserve.com/file/9ZPW35V
    http://www.fileserve.com/file/DWCjrKa
    Code:
    http://www.usershare.net/j18nmiulpnt1
    http://www.usershare.net/amtewlzy4n7o
    http://www.usershare.net/fm3g9bgsuvo6

 

 

Posting Permissions

  • You may not post new threads
  • You may not post replies
  • You may not post attachments
  • You may not edit your posts
  •