Results 1 to 1 of 1
  1. #1
    Banned www.desirulez.net
    Join Date
    Feb 2011
    Posts
    198

    T

    Default Pellam Voruvelite - Dvd - Rip - X264 - 1CD

    Follow us on Social Media









    Format : AVI
    Format/Info : Audio Video Interleave
    File size : 699 MiB
    Duration : 2h 28mn
    Overall bit rate : 656 Kbps
    Writing application : FairUse Wizard - FairUse Wizard 2.10 - Easy DVD to iPhone, iPod Touch, iPod Classic, AppleTV, Zune, Xbox 360, PS3, Standalone DivX Player, TiVO HD. Encode with DivX, XviD, H.264, VP7 and ffVFW codecs!
    Writing library : The best and REALLY easy backup tool

    Video

    ID : 0
    Format : MPEG-4 Visual
    Format profile : Advanced [email protected]
    Format settings, BVOP : 1
    Format settings, QPel : No
    Format settings, GMC : No warppoints
    Format settings, Matrix : Default (MPEG)
    Muxing mode : Packed bitstream
    Codec ID : XVID
    Codec ID/Hint : XviD
    Duration : 2h 28mn
    Bit rate : 516 Kbps
    Width : 656 pixels
    Height : 304 pixels
    Display aspect ratio : 2.2:1
    Frame rate : 29.970 fps
    Color space : YUV
    Chroma subsampling : 4:2:0
    Bit depth : 8 bits
    Scan type : Progressive
    Compression mode : Lossy
    Bits/(Pixel*Frame) : 0.086
    Stream size : 550 MiB (79%)
    Writing library : XviD 1.2.0.dev47 (UTC 2006-11-01)

    Audio

    ID : 1
    Format : MPEG Audio
    Format version : Version 1
    Format profile : Layer 3
    Mode : Joint stereo
    Codec ID : 55
    Codec ID/Hint : MP3
    Duration : 2h 28mn
    Bit rate mode : Constant
    Bit rate : 128 Kbps
    Channel(s) : 2 channels
    Sampling rate : 48.0 KHz
    Compression mode : Lossy
    Stream size : 136 MiB (20%)
    [/code]














    Credits to Ripper
    Uploaded by Linksfreak

    Single Link
    Code:
    http://www.fileserve.com/file/fRF3My2
    200Mb Links
    Code:
    http://www.fileserve.com/file/Y3WEHth
    http://www.fileserve.com/file/gYJDeM5
    http://www.fileserve.com/file/DxTGuMV
    http://www.fileserve.com/file/fRF3My2
    Use HjSplit to Join Files

 

 

Posting Permissions

  • You may not post new threads
  • You may not post replies
  • You may not post attachments
  • You may not edit your posts
  •