Results 1 to 1 of 1
  1. #1

    Thumbs up FusionMix - Tribal Dance 2 – videomegamix (2010)

    Follow us on Social Media







    FusionMix - Tribal Dance 2 – videomegamix (2010)



    INFO :
    Code:
     Format                           : MPEG-PS
    File size                        : 2.07 GiB
    Duration                         : 46mn 5s
    Overall bit rate                 : 6 437 Kbps
    
    Video
    ID                               : 224 (0xE0)
    Format                           : MPEG Video
    Format version                   : Version 2
    Format profile                   : [email protected]
    Format settings, BVOP            : Yes
    Format settings, Matrix          : Default
    Format settings, GOP             : M=3, N=15
    Duration                         : 46mn 5s
    Bit rate mode                    : Variable
    Bit rate                         : 5 988 Kbps
    Nominal bit rate                 : 9 500 Kbps
    Width                            : 720 pixels
    Height                           : 480 pixels
    Display aspect ratio             : 4:3
    Frame rate                       : 29.970 fps
    Standard                         : NTSC
    Color space                      : YUV
    Chroma subsampling               : 4:2:0
    Bit depth                        : 8 bits
    Scan type                        : Interlaced
    Scan order                       : Bottom Field First
    Compression mode                 : Lossy
    Bits/(Pixel*Frame)               : 0.578
    Stream size                      : 1.93 GiB (93%)
    
    Audio
    ID                               : 192 (0xC0)
    Format                           : MPEG Audio
    Format version                   : Version 1
    Format profile                   : Layer 2
    Duration                         : 46mn 5s
    Bit rate mode                    : Constant
    Bit rate                         : 320 Kbps
    Channel(s)                       : 2 channels
    Sampling rate                    : 48.0 KHz
    Compression mode                 : Lossy
    Stream size                      : 106 MiB (5%)
    
    Recovery : +5%
    Cover : No
    Compression method : Best
    
    Tracklist:
    01- Lovegame - Dj Galamix Gala Mixer - Lady Gaga
    02- Call Me Baby - Dj Galamix & Dj Fer Gala Mixer - David Tavare Ft Ruth
    03- Britney Spears Ft Dj Galamix
    04- Mariah - Juan Magan - Original Extended Mix
    05- Poker Face - Lady Gaga - Dj Romi Tribal House
    06- Lady - Mendez Ft Crossfire - (Marco Hinojosa Remix)
    07- Wakawaka - Shakira - Remix (Radio Edit Dj Juan Iduarte Vs David Guetta 2010)
    08- Pocoto - Mc Serginho - Dj Noki & Manu Rubio Rmx
    09- Bom Bom Pow - Dj Galamix Gala Mixer - Bep
    10- I Gotta Feeling - Black Eyed Peas - Tribal Rework Punchis Dj Mexico
    11- After The Love - R.I.O - Miguel Vargas Extreme Latin Sound Mix 2k10
    12- Thriller - Michael Jackson - Love Groove 25th Anniversary Bottleg Mix
    13- Little Respect - Erasure Vs Erich Ensastigue - Jhon Mosquera **** Mix
    14- Loco Tribal – Kuma Ya - Cool Angel Remix
    15- Ritmo Do Meu Flow - Big Ali Ft. Fatman Scoop - Dj Gazu Official Remix
    16- Let The Bass Kick In Miami Girl Vs Boriqua Anthem - Chuckie. Feat Lmfao - Dj Blade Dub Mix
    17- Oye Baby - Denoizer Feat Nicola Fasano Y Pitbull - Extended Club Remix
    18- Alejandro - Lady Gaga – Dj Nejtrino Dj Baur Radio Mix
    19- Shake Your Bady – Laurent - 2009 Tribal Mix - Murat Dag
    20- Every Breath - Dj Antoine - Clubzound Remix
    21- What Is Love - Dj Galamix Gala Mixer - Haddaway Ft Dj Galamix
    22- Now You See It - Pitbull - Electro (Edit Dj Juan Iduarte)
    23- Hotel Room Service - Dj Galamix Gala Mixer - Pitbull
    24- Celebration - Dj Piojo® Mixer House - Madonna Feat Benny Benassi
    25- Loba - Shakira - Cuva Ultimate Remix
    26- Give It 2 Me - Madonna - Luis Erre In Mexico Club Mix
    DOWNLOAD : fileserve/hellshare (2x957MB + 1x231MB)
    ( Click'n'Load with JDownloader )

    Code:
     http://u.bb/69F
    ...copy link in browser, wait 5s, click on "SKIP AD", click on "Click´n´Load" and download...

    >>LINKS ARE INTERCHANGEABLE<<
    nO pASS
    ...YOU CAN SHARE MY UPLOADS...

 

 

Posting Permissions

  • You may not post new threads
  • You may not post replies
  • You may not post attachments
  • You may not edit your posts
  •