Results 1 to 1 of 1
  1. #1
    Banned www.desirulez.net
    Join Date
    Jan 2010
    Posts
    2,522

    T

    Thumbs up Tannu Weds Mannu 2011 Super Cam Dvd First On Net

    Follow us on Social Media







    Tannu Weds Mannu 2011 Super Cam Dvd First On Net




    Format : MPEG-PS
    File size : 735 MiB
    Duration : 1h 50mn
    Overall bit rate : 930 Kbps

    Video
    ID : 224 (0xE0)
    Format : MPEG Video
    Format version : Version 2
    Format profile : [email protected]
    Format settings, BVOP : Yes
    Format settings, Matrix : Default
    Format settings, GOP : M=3, N=13
    Duration : 1h 50mn
    Bit rate mode : Variable
    Bit rate : 783 Kbps
    Nominal bit rate : 9 672 Kbps
    Width : 352 pixels
    Height : 288 pixels
    Display aspect ratio : 4:3
    Frame rate : 25.000 fps
    Standard : PAL
    Color space : YUV
    Chroma subsampling : 4:2:0
    Bit depth : 8 bits
    Scan type : Progressive
    Compression mode : Lossy
    Bits/(Pixel*Frame) : 0.309
    Stream size : 619 MiB (84%)

    Audio
    ID : 192 (0xC0)
    Format : MPEG Audio
    Format version : Version 1
    Format profile : Layer 2
    Duration : 1h 50mn
    Bit rate mode : Constant
    Bit rate : 128 Kbps
    Channel(s) : 2 channels
    Sampling rate : 48.0 KHz
    Compression mode : Lossy
    Stream size : 101 MiB (14%)






    Code:
    http://www.fileserve.com/file/UhxW82M/Tanu.Weds.mannu.2011.VOB

    Code:
    http://www.filesonic.com/file/121924021/Tanu.Weds.mannu.2011.VOB

    Code:
    http://www.duckload.com/download/3225284/Tanu.Weds.mannu.2011.VOB

    Code:
    http://bitshare.com/files/rxfxutb8/Tanu.Weds.mannu.2011.VOB.html
    Code:
    http://freakshare.com/files/lyuonvpz/Tanu.Weds.mannu.2011.VOB.html

    Code:
    http://www.usershare.net/b4i49fvuu4br]Tanu.Weds.mannu.2011.VOB




 

 

Posting Permissions

  • You may not post new threads
  • You may not post replies
  • You may not post attachments
  • You may not edit your posts
  •