Results 1 to 1 of 1
  1. #1
    Hot Member www.desirulez.net
    Join Date
    Sep 2009
    Posts
    1,215

    T

    Thumbs up Tannu Weds Mannu -2011- 1cd Super Cam Xvid D3mT

    Follow us on Social Media








    Format : AVI
    Format/Info : Audio Video Interleave
    File size : 731 MiB
    Duration : 1h 50mn
    Overall bit rate : 924 Kbps
    Writing application : Lavf52.39.1

    Video
    ID : 0
    Format : MPEG-4 Visual
    Codec ID : MP43
    Codec ID/Info : Microsoft MPEG-4 v3 (pre-standard)
    Codec ID/Hint : Microsoft
    Duration : 1h 50mn
    Bit rate : 847 Kbps
    Width : 608 pixels
    Height : 272 pixels
    Display aspect ratio : 2.25:1
    Frame rate : 25.000 fps
    Compression mode : Lossy
    Bits/(Pixel*Frame) : 0.205
    Stream size : 670 MiB (92%)

    Audio
    ID : 1
    Format : MPEG Audio
    Format version : Version 1
    Format profile : Layer 3
    Mode : Joint stereo
    Mode extension : MS Stereo
    Codec ID : 55
    Codec ID/Hint : MP3
    Duration : 1h 50mn
    Bit rate mode : Constant
    Bit rate : 64.0 Kbps
    Channel(s) : 2 channels
    Sampling rate : 48.0 KHz
    Compression mode : Lossy
    Stream size : 50.6 MiB (7%)
    Alignment : Aligned on interleaves
    Interleave, duration : 24 ms (0.60 video frame)





    Code:
    http://www.fileserve.com/file/BxMh3XP




 

 

Posting Permissions

  • You may not post new threads
  • You may not post replies
  • You may not post attachments
  • You may not edit your posts
  •