Results 1 to 1 of 1
  1. #1

    Cool Apaharan (2005) 2CD - DvDRip - XviD - AC3 (Single Link)

    Follow us on Social Media







    Apaharan (2005) 2CD - DvDRip - XviD - AC3






    Format : AVI
    Format/Info : Audio Video Interleave
    Format profile : OpenDML
    Format settings : rec
    File size : 1.46 GiB
    Duration : 2h 48mn
    Overall bit rate : 1 237 Kbps
    Writing application : AVI-Mux GUI 1.17.8.3, Feb 16 201019:42:50

    Video
    ID : 0
    Format : MPEG-4 Visual
    Format profile : Advanced [email protected]
    Format settings, BVOP : 2
    Format settings, QPel : Yes
    Format settings, GMC : No warppoints
    Format settings, Matrix : Default (H.263)
    Codec ID : XVID
    Codec ID/Hint : XviD
    Duration : 2h 48mn
    Bit rate : 1 008 Kbps
    Width : 720 pixels
    Height : 304 pixels
    Display aspect ratio : 2.35:1
    Frame rate : 19.200 fps
    Original frame rate : 19.201 fps
    Color space : YUV
    Chroma subsampling : 4:2:0
    Bit depth : 8 bits
    Scan type : Progressive
    Compression mode : Lossy
    Bits/(Pixel*Frame) : 0.240
    Stream size : 1.19 GiB (82%)
    Writing library : XviD 1.2.1 (UTC 2008-12-04)

    Audio
    ID : 1
    Format : AC-3
    Format/Info : Audio Coding 3
    Mode extension : CM (complete main)
    Codec ID : 2000
    Duration : 2h 48mn
    Bit rate mode : Constant
    Bit rate : 224 Kbps
    Channel(s) : 6 channels
    Channel positions : Front: L C R, Side: L R, LFE
    Sampling rate : 48.0 KHz
    Bit depth : 16 bits
    Compression mode : Lossy
    Stream size : 270 MiB (18%)
    Alignment : Aligned on interleaves
    Interleave, duration : 64 ms (1.23 video frame)
    Interleave, preload duration : 192 ms
    Title : T2_Audio - Hindi









    DOWNLOAD FROM DUCKLOAD
    Code:
    http://www.duckload.com/dl/DsLk2

    CREDITS TO Orginal Releaser


 

 

Posting Permissions

  • You may not post new threads
  • You may not post replies
  • You may not post attachments
  • You may not edit your posts
  •