Results 1 to 1 of 1
  1. #1
    dR Dazzler www.desirulez.net
    Join Date
    Mar 2009
    Posts
    1,518

    T

    Default The.MMA.Show.2011.02.23.HDTV.XviD-JR

    Follow us on Social Media









    Code:
    Duration: 00:22:51.43, start: 0.000000, bitrate: 1686 kb/s
        Stream #0.0: Video: mpeg4, yuv420p, 624x352 [PAR 255:254 DAR 9945:5588], PAR 360448:359853 DAR 16384:9227, 29.97 tbr, 29.97 tbn, 29.97 tbc
        Stream #0.1: Audio: mp3, 48000 Hz, 2 channels, s16, 192 kb/s
    Code:
    http://www.usershare.net/9wtavi13jgxd
    Code:
    http://www.fileserve.com/file/W3xfYZw
    Code:
    http://www.filesonic.com/file/118748671/The.MMA.Show.2011.02.23.HDTV.XviD-JR.avi

 

 

Posting Permissions

  • You may not post new threads
  • You may not post replies
  • You may not post attachments
  • You may not edit your posts
  •