Results 1 to 1 of 1
  1. #1

    Thumbs up Philizz In Da Mix Vol.1 -videomegamix-(2011)

    Follow us on Social Media







    Philizz In Da Mix Vol.1 -videomegamix-(2011)[DVD5]



    INFO :
    Code:
    Format                           : MPEG-PS
    File size                        : 3 050 MiB
    Duration                         : 54mn 16s
    Overall bit rate                 : 8 062 Kbps
    
    Video
    ID                               : 224 (0xE0)
    Format                           : MPEG Video
    Format version                   : Version 2
    Format profile                   : [email protected]
    Format settings, BVOP            : Yes
    Format settings, Matrix          : Default
    Format settings, GOP             : M=3, N=12
    Bit rate mode                    : Constant
    Bit rate                         : 7 754 Kbps
    Width                            : 720 pixels
    Height                           : 576 pixels
    Display aspect ratio             : 16:9
    Frame rate                       : 25.000 fps
    Standard                         : PAL
    Color space                      : YUV
    Chroma subsampling               : 4:2:0
    Bit depth                        : 8 bits
    Scan type                        : Interlaced
    Scan order                       : Bottom Field First
    Compression mode                 : Lossy
    Bits/(Pixel*Frame)               : 0.748
    Stream size                      : 979 MiB (96%)
    
    Audio
    ID                               : 128 (0x80)
    Format                           : AC-3
    Format/Info                      : Audio Coding 3
    Mode extension                   : CM (complete main)
    Bit rate mode                    : Constant
    Bit rate                         : 192 Kbps
    Channel(s)                       : 2 channels
    Channel positions                : Front: L R
    Sampling rate                    : 48.0 KHz
    Bit depth                        : 16 bits
    Compression mode                 : Lossy
    Delay relative to video          : -80ms
    Stream size                      : 24.4 MiB (2%)
    
    Recovery : +5%
    Cover : Yes
    Compression method : Best
    
    Tracklist:
    Duck Sauce - Barbra Streisand
    Martin Solveigh ft. Dragonette - Hello
    Far East Movement - Like A G6
    Katy Perry - Firework
    Usher - DJ Got Us Fallin' In Love
    Boney M - Daddy Cool
    Jason Derülo - What If
    Roll Deep - Green Light
    Bruno Mars - Just The Way You Are
    Ben Saunders - Use Somebody
    Black Eyed Peas - The Time
    Taio Cruz - Dynamite
    Tim Berg - Seek Bromance
    Milk & Sugar - Hey (Nah Nah Nah)
    Rihanna - Only Girl In The World
    Laserkraft 3D - Nein, Mann!
    Stars On 45 - Stars On 45
    Greg Parys - Why Don't We Just ****
    Pink - Raise Your Glass
    Roger Sanchez ft. Far East Movement - 2gether
    Paul Oakenfold - Firefly
    Jay Sean ft. Pitbull - Do You Remember
    Jennifer Lopez - On The Floor
    Rythme Fatal - Man In The Mirror
    Miley Cyrus - Who Owns My Heart
    Gigi D'Agostino - 1-2-3 Super
    DOWNLOAD : fileserve/hellshare (3x957MB + 1x176MB)
    ( Click'n'Load with JDownloader )

    Code:
    http://9.bb/DZc
    ...copy link in browser, wait 5s, click on "SKIP AD", click on "Click´n´Load" and download...

    >>LINKS ARE INTERCHANGEABLE<<
    nO pASS
    ...YOU CAN SHARE MY UPLOADS...

 

 

Posting Permissions

  • You may not post new threads
  • You may not post replies
  • You may not post attachments
  • You may not edit your posts
  •