Results 1 to 1 of 1
  1. #1

    Thumbs up BluffMaster 2005 720P DVDRip AC3 [TDA]

    Follow us on Social Media









    Code:
    General
    
    Format                           : AVI
    Format/Info                      : Audio Video Interleave
    Format profile                   : OpenDML
    Format settings                  : rec
    File size                        : 2.49 GiB
    Duration                         : 2h 15mn
    Overall bit rate                 : 2 642 Kbps
    Writing application              : AVI-Mux GUI 1.17.8.3, Feb 16 201019:42:50
    
    Video
    ID                               : 0
    Format                           : MPEG-4 Visual
    Format profile                   : Advanced [email protected]
    Format settings, BVOP            : 2
    Format settings, QPel            : Yes
    Format settings, GMC             : No warppoints
    Format settings, Matrix          : Default (H.263)
    Codec ID                         : XVID
    Codec ID/Hint                    : XviD
    Duration                         : 2h 15mn
    Bit rate                         : 2 189 Kbps
    Width                            : 1 280 pixels
    Height                           : 544 pixels
    Display aspect ratio             : 2.35:1
    Frame rate                       : 23.976 fps
    Color space                      : YUV
    Chroma subsampling               : 4:2:0
    Bit depth                        : 8 bits
    Scan type                        : Progressive
    Compression mode                 : Lossy
    Bits/(Pixel*Frame)               : 0.131
    Stream size                      : 2.07 GiB (83%)
    Writing library                  : XviD 1.2.1 (UTC 2008-12-04)
    
    Audio
    ID                               : 1
    Format                           : AC-3
    Format/Info                      : Audio Coding 3
    Mode extension                   : CM (complete main)
    Codec ID                         : 2000
    Duration                         : 2h 15mn
    Bit rate mode                    : Constant
    Bit rate                         : 448 Kbps
    Channel(s)                       : 6 channels
    Channel positions                : Front: L C R, Side: L R, LFE
    Sampling rate                    : 48.0 KHz
    Bit depth                        : 16 bits
    Compression mode                 : Lossy
    Stream size                      : 433 MiB (17%)








    Fileserve:
    Code:
    http://www.fileserve.com/file/UznMtKN/BluffMaster.2005.720p.DVDRip.AC3.TDA.by.heavenly95.part1.rar
    http://www.fileserve.com/file/vDmj6hg/BluffMaster.2005.720p.DVDRip.AC3.TDA.by.heavenly95.part2.rar
    http://www.fileserve.com/file/P54ZQzY/BluffMaster.2005.720p.DVDRip.AC3.TDA.by.heavenly95.part3.rar
    http://www.fileserve.com/file/f56DESG/BluffMaster.2005.720p.DVDRip.AC3.TDA.by.heavenly95.part4.rar
    http://www.fileserve.com/file/UezAZ9s/BluffMaster.2005.720p.DVDRip.AC3.TDA.by.heavenly95.part5.rar
    Filesonic:
    Code:
    http://www.filesonic.com/file/107310162/BluffMaster.2005.720p.DVDRip.AC3.TDA.by.heavenly95.part1.rar
    http://www.filesonic.com/file/107313592/BluffMaster.2005.720p.DVDRip.AC3.TDA.by.heavenly95.part2.rar
    http://www.filesonic.com/file/107308982/BluffMaster.2005.720p.DVDRip.AC3.TDA.by.heavenly95.part3.rar
    http://www.filesonic.com/file/107315051/BluffMaster.2005.720p.DVDRip.AC3.TDA.by.heavenly95.part4.rar
    http://www.filesonic.com/file/107308802/BluffMaster.2005.720p.DVDRip.AC3.TDA.by.heavenly95.part5.rar
    Man is still the most extraordinary computer of all.




 

 

Posting Permissions

  • You may not post new threads
  • You may not post replies
  • You may not post attachments
  • You may not edit your posts
  •