Results 1 to 1 of 1
  1. #1
    Landed To DesiRulez www.desirulez.net
    Join Date
    Feb 2011
    Posts
    23

    T

    Default Aadu Puli [2011] [TC Untouched] - [First On Net]

    Follow us on Social Media








    Movie Title: Aadu Puli [2011]
    Cast: Aadhi, Poorna, Prabhu, Ravichandran, K R Vijaya
    Director: Vijay Prakash
    Music Director: Sundar C.Babu
    Production: Michael Rayappan
    Release Note: First On Net

    Release Log

    Code:
    Format                           : MPEG-PS
    File size                        : 848 MiB
    Duration                         : 2h 18mn
    Overall bit rate                 : 857 Kbps
    
    Video
    ID                               : 224 (0xE0)
    Format                           : MPEG Video
    Format version                   : Version 2
    Format profile                   : [email protected]
    Format settings, BVOP            : Yes
    Format settings, Matrix          : Default
    Format settings, GOP             : M=3, N=15
    Duration                         : 2h 18mn
    Bit rate mode                    : Variable
    Bit rate                         : 776 Kbps
    Nominal bit rate                 : 850 Kbps
    Width                            : 352 pixels
    Height                           : 240 pixels
    Display aspect ratio             : 4:3
    Frame rate                       : 29.970 fps
    Standard                         : NTSC
    Color space                      : YUV
    Chroma subsampling               : 4:2:0
    Bit depth                        : 8 bits
    Scan type                        : Progressive
    Compression mode                 : Lossy
    Bits/(Pixel*Frame)               : 0.307
    Stream size                      : 768 MiB (91%)
    
    Audio
    ID                               : 192 (0xC0)
    Format                           : MPEG Audio
    Format version                   : Version 1
    Format profile                   : Layer 2
    Duration                         : 2h 18mn
    Bit rate mode                    : Constant
    Bit rate                         : 64.0 Kbps
    Channel(s)                       : 2 channels
    Sampling rate                    : 48.0 KHz
    Compression mode                 : Lossy
    Stream size                      : 63.3 MiB (7%)

    Screenshots


    Server : Megaupload

    Aadu Puli - Download
    Server : Fileserve

    Aadu Puli - Download
    Server : Duckload [Download & Watch Online]

    Aadu Puli - Download - Watch Online

    [SHARE WITH PROPER CREDIT ~ Adhitya]

 

 

Posting Permissions

  • You may not post new threads
  • You may not post replies
  • You may not post attachments
  • You may not edit your posts
  •