Results 1 to 1 of 1
  1. #1
    Banned www.desirulez.net
    Join Date
    Jan 2010
    Posts
    2,522

    Default BluffMaster 720P DVDRIP XVID AC3 TDA

    Follow us on Social Media





    BluffMaster 720P DVDRIP XVID AC3 TDA



    General

    Format : AVI
    Format/Info : Audio Video Interleave
    Format profile : OpenDML
    Format settings : rec
    File size : 2.49 GiB
    Duration : 2h 15mn
    Overall bit rate : 2 642 Kbps
    Writing application : AVI-Mux GUI 1.17.8.3, Feb 16 201019:42:50

    Video
    ID : 0
    Format : MPEG-4 Visual
    Format profile : Advanced [email protected]
    Format settings, BVOP : 2
    Format settings, QPel : Yes
    Format settings, GMC : No warppoints
    Format settings, Matrix : Default (H.263)
    Codec ID : XVID
    Codec ID/Hint : XviD
    Duration : 2h 15mn
    Bit rate : 2 189 Kbps
    Width : 1 280 pixels
    Height : 544 pixels
    Display aspect ratio : 2.35:1
    Frame rate : 23.976 fps
    Color space : YUV
    Chroma subsampling : 4:2:0
    Bit depth : 8 bits
    Scan type : Progressive
    Compression mode : Lossy
    Bits/(Pixel*Frame) : 0.131
    Stream size : 2.07 GiB (83%)
    Writing library : XviD 1.2.1 (UTC 2008-12-04)

    Audio
    ID : 1
    Format : AC-3
    Format/Info : Audio Coding 3
    Mode extension : CM (complete main)
    Codec ID : 2000
    Duration : 2h 15mn
    Bit rate mode : Constant
    Bit rate : 448 Kbps
    Channel(s) : 6 channels
    Channel positions : Front: L C R, Side: L R, LFE
    Sampling rate : 48.0 KHz
    Bit depth : 16 bits
    Compression mode : Lossy
    Stream size : 433 MiB (17%)














    Single Links



    Code:
    http://www.filesonic.com/file/106905271/BluffMaster.720P.DVDRIP.XVID.AC3.By.Deejam.avi
    Code:
    http://www.duckload.com/download/3114082/BluffMaster.720P.DVDRIP.XVID.AC3.By.Deejam.avi


    1GB Links
    Code:
    http://www.filesonic.com/file/106966222/BluffMaster.720P.DVDRIP.XVID.AC3.By.Deejam.part1.rar
    http://www.filesonic.com/file/106940482/BluffMaster.720P.DVDRIP.XVID.AC3.By.Deejam.part2.rar
    http://www.filesonic.com/file/106960303/BluffMaster.720P.DVDRIP.XVID.AC3.By.Deejam.part3.rar
    Code:
    http://www.fileserve.com/file/Pgbhu9E/BluffMaster.720P.DVDRIP.XVID.AC3.By.Deejam.part1.rar
    http://www.fileserve.com/file/HXUsbGs/BluffMaster.720P.DVDRIP.XVID.AC3.By.Deejam.part2.rar
    http://www.fileserve.com/file/htsCEvb/BluffMaster.720P.DVDRIP.XVID.AC3.By.Deejam.part3.rar
    Code:
    http://www.duckload.com/download/3114007/BluffMaster.720P.DVDRIP.XVID.AC3.By.Deejam.part2.rar
    http://www.duckload.com/download/3113951/BluffMaster.720P.DVDRIP.XVID.AC3.By.Deejam.part1.rar
    http://www.duckload.com/download/3113656/BluffMaster.720P.DVDRIP.XVID.AC3.By.Deejam.part3.rar





 

 

Posting Permissions

  • You may not post new threads
  • You may not post replies
  • You may not post attachments
  • You may not edit your posts
  •