Results 1 to 1 of 1
  1. #1

    Thumbs up DJ Le Salt - Retro Party Vol. 5 (2009)

    Follow us on Social Media







    DJ Le Salt - Retro party Vol. 5 (2009)[DVD5]



    INFO :
    Code:
    Format                           : MPEG-PS
    File size                        : 2 320 MiB
    Duration                         : 46mn 58s
    Overall bit rate                 : 7 217 Kbps
    
    Video
    ID                               : 224 (0xE0)
    Format                           : MPEG Video
    Format version                   : Version 2
    Format profile                   : [email protected]
    Format settings, BVOP            : Yes
    Format settings, Matrix          : Default
    Format settings, GOP             : M=3, N=15
    Bit rate mode                    : Variable
    Bit rate                         : 6 881 Kbps
    Nominal bit rate                 : 9 500 Kbps
    Width                            : 720 pixels
    Height                           : 480 pixels
    Display aspect ratio             : 4:3
    Frame rate                       : 29.970 fps
    Standard                         : NTSC
    Color space                      : YUV
    Chroma subsampling               : 4:2:0
    Bit depth                        : 8 bits
    Scan type                        : Progressive
    Compression mode                 : Lossy
    Bits/(Pixel*Frame)               : 0.664
    Stream size                      : 976 MiB (95%)
    
    Audio
    ID                               : 128 (0x80)
    Format                           : AC-3
    Format/Info                      : Audio Coding 3
    Mode extension                   : CM (complete main)
    Bit rate mode                    : Constant
    Bit rate                         : 192 Kbps
    Channel(s)                       : 2 channels
    Channel positions                : Front: L R
    Sampling rate                    : 48.0 KHz
    Bit depth                        : 16 bits
    Compression mode                 : Lossy
    Delay relative to video          : -66ms
    Stream size                      : 27.2 MiB (3%)
    
    Recovery : +5%
    Cover : Yes
    Compression method : Best
    
    Tracklist - screen
    DOWNLOAD : fileserve/hellshare (2x957MB + 1x452MB)
    ( Click'n'Load with JDownloader )

    Code:
    http://9.bb/CkP
    ...copy link in browser, wait 5s, click on "SKIP AD", click on "ClickŽnŽLoad" and download...

    >>LINKS ARE INTERCHANGEABLE<<
    nO pASS
    ...YOU CAN SHARE MY UPLOADS...

 

 

Posting Permissions

  • You may not post new threads
  • You may not post replies
  • You may not post attachments
  • You may not edit your posts
  •