Results 1 to 1 of 1
  1. #1
    dR Dazzler www.desirulez.net
    Join Date
    Mar 2009
    Posts
    1,518

    T

    Default WWE.Superstars.02.17.2011.HDTV.XviD-XS

    Follow us on Social Media







    WWE.Superstars.02.17.2011.HDTV.XviD-XS

    Code:
    General Information
    Format : AVI
    Format/Info : Audio Video Interleave
    File size : 367 MiB
    Duration : 43mn 54s
    Overall bit rate : 1 167 Kbps
    Writing application : Lavf51.12.1
    Video
    ID : 0
    Format : MPEG-4 Visual
    Format profile : [email protected]
    Format settings, BVOP : No
    Format settings, QPel : No
    Format settings, GMC : No warppoints
    Format settings, Matrix : Default (H.263)
    Codec ID : DX50
    Codec ID/Hint : DivX 5
    Duration : 43mn 54s
    Bit rate : 1 025 Kbps
    Width : 624 pixels
    Height : 352 pixels
    Display aspect ratio : 16:9
    Frame rate : 29.970 fps
    Color space : YUV
    Chroma subsampling : 4:2:0
    Bit depth : 8 bits
    Scan type : Progressive
    Bits/(Pixel*Frame) : 0.156
    Stream size : 322 MiB (88%)
    Writing library : Lavc51.40.4
    Audio
    ID : 1
    Format : MPEG Audio
    Format version : Version 1
    Format profile : Layer 3
    Mode : Joint stereo
    Codec ID : 55
    Codec ID/Hint : MP3
    Duration : 43mn 54s
    Bit rate mode : Constant
    Bit rate : 128 Kbps
    Channel(s) : 2 channels
    Sampling rate : 48.0 KHz
    Stream size : 40.2 MiB (11%)
    Alignment : Aligned on interleaves
    Interleave, duration : 24 ms (0.72 video frame)
    Audio/Video Delay : 0ms
    Code:
    http://www.fileserve.com/file/tzzB9Dy/WWE.Superstars.02.17.2011.HDTV.XviD-XS.avi
    Code:
    http://bitshare.com/files/h9lxdki2/WWE.Superstars.02.17.2011.HDTV.XviD-XS.avi.html
    Last edited by Problem; 02-19-2011 at 12:56 AM.

 

 

Posting Permissions

  • You may not post new threads
  • You may not post replies
  • You may not post attachments
  • You may not edit your posts
  •