Results 1 to 1 of 1
  1. #1
    Tech Team www.desirulez.net
    Join Date
    Dec 2010
    Location
    India
    Posts
    434

    T

    Cool PAYANAM (2011)1CD - PDvDRiP - MP4 - Single Link

    Follow us on Social Media









    PAYANAM (2011)1CD - PDvDRiP - MP4 - Single Link






    Format : MPEG-4
    Format profile : Base Media
    Codec ID : isom
    File size : 703 MiB
    Duration : 2h 17mn
    Overall bit rate : 718 Kbps
    Encoded date : UTC 2011-02-16 19:39:02
    Tagged date : UTC 2011-02-16 19:39:02

    Video
    ID : 1
    Format : AVC
    Format/Info : Advanced Video Codec
    Format profile : [email protected]
    Format settings, CABAC : Yes
    Format settings, ReFrames : 4 frames
    Codec ID : avc1
    Codec ID/Info : Advanced Video Coding
    Duration : 2h 17mn
    Bit rate mode : Variable
    Bit rate : 666 Kbps
    Maximum bit rate : 2 092 Kbps
    Width : 640 pixels
    Height : 272 pixels
    Display aspect ratio : 2.35:1
    Frame rate mode : Constant
    Frame rate : 29.970 fps
    Color space : YUV
    Chroma subsampling : 4:2:0
    Bit depth : 8 bits
    Scan type : Progressive
    Bits/(Pixel*Frame) : 0.128
    Stream size : 653 MiB (93%)
    Writing library : x264 core 112 r1867 22bfd31
    Encoding settings : cabac=1 / ref=3 / deblock=1:0:0 / analyse=0x3:0x113 / me=hex / subme=7 / psy=1 / psy_rd=1.00:0.00 / mixed_ref=1 / me_range=16 / chroma_me=1 / trellis=1 / 8x8dct=1 / cqm=0 / deadzone=21,11 / fast_pskip=1 / chroma_qp_offset=-2 / threads=3 / sliced_threads=0 / nr=0 / decimate=1 / interlaced=0 / constrained_intra=0 / bframes=3 / b_pyramid=2 / b_adapt=1 / b_bias=0 / direct=1 / weightb=1 / open_gop=0 / weightp=2 / keyint=250 / keyint_min=25 / scenecut=40 / intra_refresh=0 / rc_lookahead=40 / rc=2pass / mbtree=1 / bitrate=666 / ratetol=1.0 / qcomp=0.60 / qpmin=0 / qpmax=51 / qpstep=4 / cplxblur=20.0 / qblur=0.5 / ip_ratio=1.40 / aq=1:1.00
    Encoded date : UTC 2011-02-16 16:25:44
    Tagged date : UTC 2011-02-16 19:40:10

    Audio
    ID : 2
    Format : AAC
    Format/Info : Advanced Audio Codec
    Format profile : HE-AAC / LC
    Codec ID : 40
    Duration : 2h 17mn
    Bit rate mode : Variable
    Bit rate : 48.0 Kbps
    Maximum bit rate : 54.0 Kbps
    Channel(s) : 2 channels
    Channel positions : Front: L R
    Sampling rate : 48.0 KHz / 24.0 KHz
    Compression mode : Lossy
    Stream size : 47.1 MiB (7%)
    Encoded date : UTC 2011-02-16 19:40:05
    Tagged date : UTC 2011-02-16 19:40:10








    DOWNLOAD FROM DUCKLOAD::
    Code:
    http://www.duckload.com/dl/DyTk2
    DOWNLOAD FROM Freakshare::
    Code:
    http://freakshare.com/files/zuo3kp0t/Payanam-1CD.mp4.html

    Credits To Original Releaser


 

 

Posting Permissions

  • You may not post new threads
  • You may not post replies
  • You may not post attachments
  • You may not edit your posts
  •