Results 1 to 1 of 1
  1. #1
    Tech Team www.desirulez.net
    Join Date
    Dec 2010
    Location
    India
    Posts
    434

    T

    Wink PAYANAM (2011)500mb - PDvDRiP - High Quality - Single Link

    Follow us on Social Media









    PAYANAM (2011)500mb - PDvDRiP - High Quality - Single Link






    Format : Matroska
    File size : 507 MiB
    Duration : 2h 17mn
    Overall bit rate : 517 Kbps
    Encoded date : UTC 2011-02-16 07:07:24
    Writing application : mkvmerge v4.4.0 ('Die Wiederkehr') built on Oct 31 2010 21:52:48
    Writing library : libebml v1.0.0 + libmatroska v1.0.0

    Video
    ID : 1
    Format : AVC
    Format/Info : Advanced Video Codec
    Format profile : [email protected]
    Format settings, CABAC : Yes
    Format settings, ReFrames : 8 frames
    Codec ID : V_MPEG4/ISO/AVC
    Duration : 2h 17mn
    Bit rate : 451 Kbps
    Width : 640 pixels
    Height : 272 pixels
    Display aspect ratio : 2.35:1
    Frame rate : 25.000 fps
    Color space : YUV
    Chroma subsampling : 4:2:0
    Bit depth : 8 bits
    Scan type : Progressive
    Bits/(Pixel*Frame) : 0.104
    Stream size : 434 MiB (86%)
    Writing library : x264 core 112 r1867 22bfd31
    Encoding settings : cabac=1 / ref=8 / deblock=1:0:0 / analyse=0x3:0x133 / me=umh / subme=9 / psy=1 / psy_rd=1.00:0.00 / mixed_ref=1 / me_range=16 / chroma_me=1 / trellis=2 / 8x8dct=1 / cqm=0 / deadzone=21,11 / fast_pskip=1 / chroma_qp_offset=-2 / threads=3 / sliced_threads=0 / nr=0 / decimate=1 / interlaced=0 / constrained_intra=0 / bframes=3 / b_pyramid=2 / b_adapt=2 / b_bias=0 / direct=3 / weightb=1 / open_gop=0 / weightp=2 / keyint=250 / keyint_min=25 / scenecut=40 / intra_refresh=0 / rc_lookahead=60 / rc=2pass / mbtree=1 / bitrate=451 / ratetol=1.0 / qcomp=0.60 / qpmin=0 / qpmax=51 / qpstep=4 / cplxblur=20.0 / qblur=0.5 / ip_ratio=1.40 / aq=1:1.00

    Audio
    ID : 2
    Format : AC-3
    Format/Info : Audio Coding 3
    Mode extension : CM (complete main)
    Codec ID : A_AC3
    Duration : 2h 17mn
    Bit rate mode : Constant
    Bit rate : 64.0 Kbps
    Channel(s) : 2 channels
    Channel positions : Front: L R
    Sampling rate : 48.0 KHz
    Bit depth : 16 bits
    Compression mode : Lossy
    Stream size : 62.7 MiB (12%)









    DOWNLOAD FROM DUCKLOAD::
    Code:
    http://www.duckload.com/dl/CyTk2
    DOWNLOAD FROM Freakshare::
    Code:
    http://freakshare.com/files/vlylkd59/PAYANAM-500MB.mkv.html

    Credits To Original Releaser


 

 

Posting Permissions

  • You may not post new threads
  • You may not post replies
  • You may not post attachments
  • You may not edit your posts
  •