Results 1 to 1 of 1
  1. #1

    Thumbs up 80īs Videohits Vol. 1 (2009)

    Follow us on Social Media







    80īs Videohits Vol. 1 (2009)[DVD5]



    INFO :
    Code:
    Format                           : MPEG-PS
    File size                        : 4 220 MiB
    Duration                         : 3h 28mn 22s
    Overall bit rate                 : 53.4 Mbps
    
    Video
    ID                               : 224 (0xE0)
    Format                           : MPEG Video
    Format version                   : Version 2
    Format profile                   : [email protected]
    Format settings, BVOP            : Yes
    Format settings, Matrix          : Default
    Bit rate mode                    : Variable
    Bit rate                         : 52.2 Mbps
    Nominal bit rate                 : 9 608 Kbps
    Width                            : 720 pixels
    Height                           : 480 pixels
    Display aspect ratio             : 4:3
    Frame rate                       : 29.970 fps
    Standard                         : NTSC
    Color space                      : YUV
    Chroma subsampling               : 4:2:0
    Bit depth                        : 8 bits
    Scan type                        : Progressive
    Compression mode                 : Lossy
    Bits/(Pixel*Frame)               : 5.037
    Stream size                      : 1 000 MiB (98%)
    
    Audio
    ID                               : 128 (0x80)
    Format                           : AC-3
    Format/Info                      : Audio Coding 3
    Mode extension                   : CM (complete main)
    Bit rate mode                    : Constant
    Bit rate                         : 192 Kbps
    Channel(s)                       : 2 channels
    Channel positions                : Front: L R
    Sampling rate                    : 48.0 KHz
    Bit depth                        : 16 bits
    Compression mode                 : Lossy
    Stream size                      : 3.68 MiB (0%)
    
    Recovery : +5%
    Cover : Yes
    Compression method : Best
    
    Tracklist:
    01. Time After Time (Cyndi Lauper)
    02. Africa (Toto)
    03. Big In Japan (Alphaville)
    04. Don't Dream It's Over (Crowded House)
    05. Every Breath You Take (The Police)
    06. A Little Respect (Erasure)
    07. Everything I Own (Boy George)
    08. Lady In Red (Chris De Burgh)
    09. Hard To Say I'm Sorry (Chicago)
    10. Wonderful Life (Black)
    11. Someones Watching Me (Rockwell)
    12. Papa Don't Preach (Madonna)
    13. Maria Magdalena (Sandra)
    14. I Want To Know What Love Is (Foreigner)
    15. It's My Life (Talk Talk)
    16. 99 Luftballons (Nena)
    17. Every Rose Has Its Thorn (Poison)
    18. Heaven (Bryan Adams)
    19. Beat It (Michael Jackson)
    20. Bette Davis Eyes (Kim Carnes)
    21. I Wanna Dance With Somebody (Whitney Houston)
    22. You're My Heart, You're My Soul (Modern Talking)
    23. Don't Go (Yazoo)
    24. Carrie (Europe)
    25. Boys (Sabrina)
    26. Touch Me (Samantha Fox)
    27. I Should Be So Lucky (Kylie Minogue)
    28. Just Can't Get Enough (Depeche Mode)
    29. Girls Just Want To Have Fun (Cyndi Lauper)
    30. Never Gonna Give You Up (Rick Astley)
    31. Self Control (Laura Branigan)
    32. Take On Me (A-Ha)
    33. Stop (Sam Brown)
    34. Careless Whisper (Wham!)
    35. Forever Young (Alphaville)
    36. Shout (Tears For Fears)
    37. Do You Realy Want To Hurt Me (Culture Club)
    38. Only You (Savage)
    39. Relax (Frankie Goes To Hollywood)
    40. Eye Of The Tiger (Survivor)
    41. Tarzan Boy (Baltimora)
    42. Total Eclipse Of The Heart (Bonnie Tyler)
    43. Voyage Voyage (Desireless)
    44. You're The Inspiration (Chicago)
    45. Broken Wings (Mr.Mister)
    46. Like A Virgen (Madonna)
    47. Sunglasses At Night (Corey Hart)
    48. Dancing With Tears In My Eyes (Ultravox)
    49. Smalltown Boy (Bronski Beat)
    50. The Final Countdown (Europe)
    DOWNLOAD : fileserve/hellshare (4x957MB + 1x552MB)
    ( Click'n'Load with JDownloader )

    Code:
    http://linkcrypt.ws/dir/wzdr23827ik1927

    >>LINKS ARE INTERCHANGEABLE<<
    nO pASS
    ...YOU CAN SHARE MY UPLOADS...

 

 

Posting Permissions

  • You may not post new threads
  • You may not post replies
  • You may not post attachments
  • You may not edit your posts
  •