Results 1 to 1 of 1
  1. #1
    Tech Team www.desirulez.net
    Join Date
    Dec 2010
    Location
    India
    Posts
    434

    T

    Smile Ajab Prem Ki Kahani (2011) (Main Event) - Valentine Special 13 Feb 2011

    Follow us on Social Media








    Ajab Prem Ki Kahani(2011) (Main Event) - Valentine Special 13 Feb 2011




    Format : AVI
    Format/Info : Audio Video Interleave
    File size : 736 MiB
    Duration : 1h 46mn
    Overall bit rate : 967 Kbps

    Video
    ID : 0
    Format : MPEG-4 Visual
    Format profile : Advanced [email protected]
    Format settings, BVOP : No
    Format settings, QPel : No
    Format settings, GMC : No warppoints
    Format settings, Matrix : Default (MPEG)
    Codec ID : XVID
    Codec ID/Hint : XviD
    Duration : 1h 46mn
    Bit rate : 832 Kbps
    Width : 720 pixels
    Height : 576 pixels
    Display aspect ratio : 5:4
    Frame rate : 25.000 fps
    Standard : PAL
    Color space : YUV
    Chroma subsampling : 4:2:0
    Bit depth : 8 bits
    Scan type : Progressive
    Compression mode : Lossy
    Bits/(Pixel*Frame) : 0.080
    Stream size : 633 MiB (86%)
    Writing library : XviD 1.2.1 (UTC 2008-12-04)

    Audio
    ID : 1
    Format : MPEG Audio
    Format version : Version 1
    Format profile : Layer 3
    Codec ID : 55
    Codec ID/Hint : MP3
    Duration : 1h 46mn
    Bit rate mode : Constant
    Bit rate : 128 Kbps
    Channel(s) : 2 channels
    Sampling rate : 44.1 KHz
    Compression mode : Lossy
    Stream size : 97.4 MiB (13%)
    Alignment : Split accross interleaves
    Interleave, duration : 80 ms (2.00 video frames)










    DOWNLOAD FROM DUCKLOAD:
    Code:
    http://www.duckload.com/dl/R2Vk2
    DOWNLOAD FROM FREAKSHARE:
    Code:
    http://freakshare.com/files/db21h50j/Ajab-Prem-Ki-Kahani---Main-Event.avi.html

    CREDITS TO Original Releaser



 

 

Posting Permissions

  • You may not post new threads
  • You may not post replies
  • You may not post attachments
  • You may not edit your posts
  •