Results 1 to 1 of 1
  1. #1

    Red face Kaavalan (2011) ~ 1CD ~ Xvid ~ Mp3 ~ DVDRip ~ Team IST

    Follow us on Social Media









    Format : AVI
    Format/Info : Audio Video Interleave
    Format profile : OpenDML
    File size : 692 MiB
    Duration : 2h 24mn
    Overall bit rate : 672 Kbps

    Video
    ID : 0
    Format : MPEG-4 Visual
    Codec ID : XVID
    Duration : 2h 24mn
    Bit rate : 602 Kbps
    Width : 608 pixels
    Height : 272 pixels
    Display aspect ratio : 2.25:1
    Frame rate : 29.970 fps
    Bit depth : 8 bits
    Scan type : Progressive
    Bits/(Pixel*Frame) : 0.121
    Stream size : 621 MiB (90%)


    Audio
    ID : 1
    Format : MPEG Audio
    Format profile : Layer 3
    Codec ID/Hint : MP3
    Duration : 2h 24mn
    Bit rate : 60.3 Kbps
    Nominal bit rate : 64.0 Kbps
    Channel(s) : 1 channel
    Sampling rate : 48.0 KHz
    Stream size : 62.1 MiB (9%)










    Code:
    http://cramit.in/mzlwj6nvrguq
    http://hotfile.com/dl/104537211/8382d92/Kaavalan(2011)1CD.Xvid.Mp3.DVDRip.Team.IST.avi.html

 

 

Posting Permissions

  • You may not post new threads
  • You may not post replies
  • You may not post attachments
  • You may not edit your posts
  •