Results 1 to 1 of 1
  1. #1
    dR Contributor www.desirulez.net
    Join Date
    Jan 2011
    Posts
    2,299

    Smile Yeh Hai Mumbai Meri Jaan (1999) - DVDRip - Xvid - AC3 - [Team Bindass]

    Follow us on Social Media







    General
    Format : AVI
    Format/Info : Audio Video Interleave
    File size : 1.49 GiB
    Duration : 2h 7mn
    Overall bit rate : 1 679 Kbps
    Writing application : VirtualDubMod 1.5.10.2
    Writing library : VirtualDubMod build

    Video
    Format : MPEG-4 Visual
    Format profile : Advanced [email protected]
    Format settings, BVOP : Yes
    Format settings, QPel : No
    Format settings, GMC : No warppoints
    Format settings, Matrix : Default (H.263)
    Codec ID : XVID
    Codec ID/Hint : XviD
    Duration : 2h 7mn
    Bit rate : 1 219 Kbps
    Width : 640 pixels
    Height : 352 pixels
    Display aspect ratio : 16:9
    Frame rate : 29.970 fps
    Color space : YUV
    Chroma subsampling : 4:2:0
    Bit depth : 8 bits
    Scan type : Progressive
    Compression mode : Lossy
    Bits/(Pixel*Frame) : 0.181
    Stream size : 1.08 GiB (73%)
    Writing library : XviD 1.2.0.dev47

    Audio

    Format : AC-3
    Format/Info : Audio Coding 3
    Mode extension : CM (complete main)
    Codec ID : 2000
    Duration : 2h 7mn
    Bit rate mode : Constant
    Bit rate : 448 Kbps
    Channel(s) : 6 channels
    Sampling rate : 48.0 KHz
    Bit depth : 16 bits
    Video delay : 15ms
    Stream size : 408 MiB (27%)

    Screenshots:






    Code:
    http://cramit.in/7d5yj6vasgob

 

 

Posting Permissions

  • You may not post new threads
  • You may not post replies
  • You may not post attachments
  • You may not edit your posts
  •