Results 1 to 1 of 1
  1. #1
    Tech Team www.desirulez.net
    Join Date
    Dec 2010
    Location
    India
    Posts
    434

    T

    Smile Yuvan Live In Concert (2011)1CD - DTH Rip - AAC (Single Link)

    Follow us on Social Media









    Yuvan Live In Concert (2011)1CD - DTH Rip - AAC (Single Link)






    Format : MPEG-4
    Format profile : Base Media / Version 2
    Codec ID : mp42
    File size : 601 MiB
    Duration : 1h 54mn
    Overall bit rate : 735 Kbps
    Encoded date : UTC 2011-02-12 13:16:25
    Tagged date : UTC 2011-02-12 14:41:29
    Writing application : HandBrake 0.9.5 2011010300

    Video
    ID : 1
    Format : AVC
    Format/Info : Advanced Video Codec
    Format profile : [email protected]
    Format settings, CABAC : Yes
    Format settings, ReFrames : 4 frames
    Codec ID : avc1
    Codec ID/Info : Advanced Video Coding
    Duration : 1h 54mn
    Bit rate mode : Variable
    Bit rate : 635 Kbps
    Width : 608 pixels
    Height : 288 pixels
    Display aspect ratio : 4:3
    Original display aspect ratio : 4:3
    Frame rate mode : Constant
    Frame rate : 29.970 fps
    Color space : YUV
    Chroma subsampling : 4:2:0
    Bit depth : 8 bits
    Scan type : Progressive
    Bits/(Pixel*Frame) : 0.121
    Stream size : 518 MiB (86%)
    Writing library : x264 core 112
    Encoding settings : cabac=1 / ref=2 / deblock=1:0:0 / analyse=0x1:0x111 / me=hex / subme=6 / psy=1 / psy_rd=1.00:0.00 / mixed_ref=0 / me_range=16 / chroma_me=1 / trellis=0 / 8x8dct=0 / cqm=0 / deadzone=21,11 / fast_pskip=1 / chroma_qp_offset=-2 / threads=3 / sliced_threads=0 / nr=0 / decimate=1 / interlaced=0 / constrained_intra=0 / bframes=2 / b_pyramid=2 / b_adapt=1 / b_bias=0 / direct=1 / weightb=0 / open_gop=0 / weightp=2 / keyint=300 / keyint_min=29 / scenecut=40 / intra_refresh=0 / rc_lookahead=40 / rc=abr / mbtree=1 / bitrate=635 / ratetol=1.0 / qcomp=0.60 / qpmin=3 / qpmax=51 / qpstep=4 / ip_ratio=1.40 / aq=1:1.00
    Encoded date : UTC 2011-02-12 13:16:25
    Tagged date : UTC 2011-02-12 14:41:29
    Color primaries : BT.601-6 525, BT.1358 525, BT.1700 NTSC, SMPTE 170M
    Transfer characteristics : BT.709-5, BT.1361
    Matrix coefficients : BT.601-6 525, BT.1358 525, BT.1700 NTSC, SMPTE 170M

    Audio
    ID : 2
    Format : AAC
    Format/Info : Advanced Audio Codec
    Format profile : LC
    Codec ID : 40
    Duration : 1h 54mn
    Bit rate mode : Variable
    Bit rate : 96.0 Kbps
    Maximum bit rate : 112 Kbps
    Channel(s) : 2 channels
    Channel positions : Front: L R
    Sampling rate : 48.0 KHz
    Compression mode : Lossy
    Stream size : 78.5 MiB (13%)
    Encoded date : UTC 2011-02-12 13:16:25
    Tagged date : UTC 2011-02-12 14:41:29








    DOWNLOAD FROM DUCKLOAD::
    Code:
    http://www.duckload.com/download/2839102/Yuvan_Live_Concert.mp4

    CREDITS TO Original releaser

    [/quote]

 

 

Posting Permissions

  • You may not post new threads
  • You may not post replies
  • You may not post attachments
  • You may not edit your posts
  •