Results 1 to 1 of 1
  1. #1
    Tech Team www.desirulez.net
    Join Date
    Dec 2010
    Location
    India
    Posts
    434

    T

    Wink Yutham Sei (2011) 1CD - PDVDRip - Xvid - Good Quality (Single Link)

    Follow us on Social Media







    [center]

    Yutham Sei (2011) 1CD - PDVDRip - Xvid - Good Quality (Single Link)






    Format : AVI
    Format/Info : Audio Video Interleave
    File size : 700 MiB
    Duration : 2h 32mn
    Overall bit rate : 642 Kbps

    Video
    ID : 0
    Format : MPEG-4 Visual
    Format profile : [email protected]
    Format settings, BVOP : No
    Format settings, QPel : No
    Format settings, GMC : No warppoints
    Format settings, Matrix : Default (H.263)
    Codec ID : XVID
    Codec ID/Hint : XviD
    Duration : 2h 32mn
    Bit rate : 500 Kbps
    Width : 608 pixels
    Height : 256 pixels
    Display aspect ratio : 2.35:1
    Frame rate : 29.970 fps
    Color space : YUV
    Chroma subsampling : 4:2:0
    Bit depth : 8 bits
    Scan type : Progressive
    Compression mode : Lossy
    Bits/(Pixel*Frame) : 0.107
    Stream size : 545 MiB (78%)
    Writing library : XviD 1.1.2 (UTC 2006-11-01)

    Audio
    ID : 1
    Format : MPEG Audio
    Format version : Version 1
    Format profile : Layer 3
    Mode : Joint stereo
    Mode extension : MS Stereo
    Codec ID : 55
    Codec ID/Hint : MP3
    Duration : 2h 32mn
    Bit rate mode : Constant
    Bit rate : 128 Kbps
    Channel(s) : 2 channels
    Sampling rate : 48.0 KHz
    Compression mode : Lossy
    Stream size : 140 MiB (20%)
    Alignment : Split accross interleaves
    Interleave, duration : 24 ms (0.72 video frame)








    DOWNLOAD FROM DUCKLOAD::
    Code:
    http://www.duckload.com/download/2818086/Yudham_Sei.avi

 

 

Posting Permissions

  • You may not post new threads
  • You may not post replies
  • You may not post attachments
  • You may not edit your posts
  •