Results 1 to 2 of 2
  1. #1
    Tech Team www.desirulez.net
    Join Date
    Dec 2010
    Location
    India
    Posts
    434

    T

    Smile Patiala House (2011) 1CD - PDVDRip - MPG (Single Link)

    Follow us on Social Media









    Patiala House (2011) 1CD - PDVDRip - IcTv (Single Link)






    Format : MPEG-PS
    File size : 795 MiB
    Duration : 2h 25mn
    Overall bit rate : 762 Kbps

    Video
    ID : 224 (0xE0)
    Format : MPEG Video
    Format version : Version 2
    Format settings, BVOP : Yes
    Format settings, Matrix : Default
    Duration : 2h 25mn
    Bit rate mode : Constant
    Bit rate : 683 Kbps
    Nominal bit rate : 1 150 Kbps
    Width : 352 pixels
    Height : 288 pixels
    Display aspect ratio : 1.222
    Frame rate : 25.000 fps
    Standard : PAL
    Color space : YUV
    Bit depth : 8 bits
    Scan type : Progressive
    Compression mode : Lossy
    Bits/(Pixel*Frame) : 0.269
    Stream size : 712 MiB (90%)

    Audio
    ID : 192 (0xC0)
    Format : MPEG Audio
    Format version : Version 1
    Format profile : Layer 2
    Duration : 2h 25mn
    Bit rate mode : Constant
    Bit rate : 64.0 Kbps
    Channel(s) : 2 channels
    Sampling rate : 48.0 KHz
    Compression mode : Lossy
    Stream size : 66.8 MiB (8%)






    DOWNLOAD FROM DUCKLOAD::
    Code:
    http://www.duckload.com/download/2807657/Patiala_-_PDVD.mpg

    CREDITS TO Original releaser


  2. #2
    Tech Team www.desirulez.net
    Join Date
    Dec 2010
    Location
    India
    Posts
    434

    T

    Wink Patiala House (2011) 1CD - DVDScr - Xvid (Single Link)

    Links...Updated..again..sorryy for t

 

 

Posting Permissions

  • You may not post new threads
  • You may not post replies
  • You may not post attachments
  • You may not edit your posts
  •