Results 1 to 1 of 1
  1. #1
    dR Dazzler www.desirulez.net
    Join Date
    Mar 2009
    Posts
    1,518

    Default WWE Bragging Rights 2010 DVDRip XviD-SPRiNTER

    Follow us on Social Media





    WWE Bragging Rights 2010 DVDRip XviD-SPRiNTER



    Code:
    Format: AVI
    Format/Info: Audio Video Interleave
    File size: 1.37 GiB
    Duration: 2h 43mn
    Overall bit rate: 1 198 Kbps
    Writing application: VirtualDubMod 1.5.10.2 (build 2540/release)
    Writing library: VirtualDubMod build 2540/release
    
    Video
    ID: 0
    Format: MPEG-4 Visual
    Format profile: Advanced [email protected]
    Format settings, BVOP: Yes
    Format settings, QPel: No
    Format settings, GMC: No warppoints
    Format settings, Matrix: Default (H.263)
    Codec ID: XVID
    Codec ID/Hint: XviD
    Duration: 2h 43mn
    Bit rate: 1 055 Kbps
    Width: 576 pixels
    Height: 320 pixels
    Display aspect ratio: 16:9
    Frame rate: 29.970 fps
    Color space: YUV
    Chroma subsampling: 4:2:0
    Bit depth: 8 bits
    Scan type: Progressive
    Bits/(Pixel*Frame): 0.191
    Stream size: 1.21 GiB (88%)
    Writing library: XviD 1.1.2 (UTC 2006-11-01)
    
    Audio
    ID: 1
    Format: MPEG Audio
    Format version: Version 1
    Format profile: Layer 3
    Codec ID: 55
    Codec ID/Hint: MP3
    Duration: 2h 43mn
    Bit rate mode: Variable
    Bit rate: 129 Kbps
    Minimum bit rate: 128 Kbps
    Channel(s): 2 channels
    Sampling rate: 48.0 KHz
    Stream size: 151 MiB (11%)
    Alignment: Aligned on interleaves
    Interleave, duration: 24 ms (0.72 video frame)
    Interleave, preload duration: 142 ms
    Writing library: LAME3.95
    Encoding settings: -m s -V 6 -q 3 -lowpass 16 --vbr-old -b 128
    Code:
    http://www.fileserve.com/file/PgwhMT6/sprinter-wwebr2010a.avi
    http://www.fileserve.com/file/nntZ9dP/sprinter-wwebr2010b.avi
    Code:
    http://hotfile.com/dl/102996555/8359d51/sprinter-wwebr2010a.avi.html
    http://hotfile.com/dl/102997022/b862e55/sprinter-wwebr2010b.avi.html

 

 

Posting Permissions

  • You may not post new threads
  • You may not post replies
  • You may not post attachments
  • You may not edit your posts
  •