Results 1 to 1 of 1
  1. #1

    Cool Dhobi Ghat - 2011 - DVD Scr Rip - 1CD - X264 DUS

    Follow us on Social Media





    Dhobi Ghat - 2011 - DVD Scr Rip - 1CD - X264 DUS



    Code:
    File size                        : 715 MiB
    Duration                         : 1h 40mn
    Overall bit rate                 : 998 Kbps
    Encoded date                     : UTC 2011-01-22 22:08:48
    Writing application              : mkvmerge v4.4.0 ('Die Wiederkehr') built on Oct 31 2010 21:52:48
    Writing library                  : libebml v1.0.0 + libmatroska v1.0.0
    
    Video
    ID                               : 1
    Format                           : AVC
    Format/Info                      : Advanced Video Codec
    Format profile                   : [email protected]
    Format settings, CABAC           : Yes
    Format settings, ReFrames        : 4 frames
    Codec ID                         : V_MPEG4/ISO/AVC
    Duration                         : 1h 40mn
    Bit rate                         : 876 Kbps
    Width                            : 640 pixels
    Height                           : 320 pixels
    Display aspect ratio             : 2.000
    Frame rate                       : 29.970 fps
    Color space                      : YUV
    Chroma subsampling               : 4:2:0
    Bit depth                        : 8 bits
    Scan type                        : Progressive
    Bits/(Pixel*Frame)               : 0.143
    Stream size                      : 609 MiB (85%)
    Writing library                  : x264 core 112 r1867 22bfd31
    Language                         : English
    
    Audio
    ID                               : 2
    Format                           : MPEG Audio
    Format version                   : Version 1
    Format profile                   : Layer 3
    Mode                             : Joint stereo
    Codec ID                         : A_MPEG/L3
    Codec ID/Hint                    : MP3
    Duration                         : 1h 40mn
    Bit rate mode                    : Constant
    Bit rate                         : 128 Kbps
    Channel(s)                       : 2 channels
    Sampling rate                    : 48.0 KHz
    Compression mode                 : Lossy
    Stream size                      : 91.7 MiB (13%)
    Writing library                  : LAME3.98r
    Encoding settings                : -m j -V 4 -q 2 -lowpass 17 -b 128








    Single Links
    Code:
    http://www.filesonic.com/file/75793238/Dhobi.Ghat.2011.DVD.Scr.Rip1CD.X264.By-DXXO.mkv
    OR
    http://www.fileserve.com/file/SzT5nMy/Dhobi.Ghat.2011.DVD.Scr.Rip1CD.X264.By-DXXO.mkv
    400MB LINKS

    Code:
    http://www.fileserve.com/file/KCYyetc/Dhobi.Ghat.2011.DVD.Scr.Rip1CD.X264.By-DXXO.mkv.001
    http://www.fileserve.com/file/HfWpM6a/Dhobi.Ghat.2011.DVD.Scr.Rip1CD.X264.By-DXXO.mkv.002

    Code:
    http://www.filesonic.com/file/75793188/Dhobi.Ghat.2011.DVD.Scr.Rip1CD.X264.By-DXXO.mkv.001
    http://www.filesonic.com/file/75793150/Dhobi.Ghat.2011.DVD.Scr.Rip1CD.X264.By-DXXO.mkv.002

    Code:
    http://netload.in/dateivmcql5w6KN/Dhobi.Ghat.2011.DVD.Scr.Rip1CD.X264.By-DXXO.mkv.001.htm
    http://netload.in/dateiNGvuB1ewGr/Dhobi.Ghat.2011.DVD.Scr.Rip1CD.X264.By-DXXO.mkv.002.htm

    Code:
    http://hotfile.com/dl/102286210/8f68ffc/Dhobi.Ghat.2011.DVD.Scr.Rip1CD.X264.By-DXXO.mkv.001.html
    http://hotfile.com/dl/102286104/48e0513/Dhobi.Ghat.2011.DVD.Scr.Rip1CD.X264.By-DXXO.mkv.002.html
    Use HjSplit to Join the above 400MB files.

 

 

Posting Permissions

  • You may not post new threads
  • You may not post replies
  • You may not post attachments
  • You may not edit your posts
  •