Results 1 to 1 of 1
  1. #1

    Thumbs up Pop Express Hits Vol. 7 (2010)

    Follow us on Social Media







    [align=center]Pop Express Hits Vol. 7 (2010)



    INFO :
    Code:
    Format                           : MPEG-PS
    File size                        : 4 200 MiB
    Duration                         : 1h 22mn 20s
    Overall bit rate                 : 7 204 Kbps
    Writing library                  : Created by Nero
    
    Video
    ID                               : 224 (0xE0)
    Format                           : MPEG Video
    Format version                   : Version 2
    Format profile                   : [email protected]
    Format settings, BVOP            : Yes
    Format settings, Matrix          : Default
    Bit rate mode                    : Variable
    Bit rate                         : 6 869 Kbps
    Nominal bit rate                 : 9 641 Kbps
    Width                            : 720 pixels
    Height                           : 576 pixels
    Display aspect ratio             : 4:3
    Frame rate                       : 25.000 fps
    Standard                         : PAL
    Resolution                       : 8 bits
    Colorimetry                      : 4:2:0
    Scan type                        : Progressive
    Scan order                       : Bottom Field First
    Bits/(Pixel*Frame)               : 0.662
    Stream size                      : 976 MiB (95%)
    Writing library                  : Created by Nero
    
    Audio
    ID                               : 128 (0x80)
    Format                           : AC-3
    Format/Info                      : Audio Coding 3
    Format_Settings_ModeExtension    : CM (complete main)
    Bit rate mode                    : Constant
    Bit rate                         : 192 Kbps
    Channel(s)                       : 2 channels
    Channel positions                : Front: L R
    Sampling rate                    : 48.0 KHz
    Video delay                      : -40ms
    Stream size                      : 27.3 MiB (3%)
    
    Menu : Yes
    Recovery : +5%
    Cover : Yes
    Compression method : Best
    
    TRACKLIST :
    01. BAD BOYS BLUE - Still In Love
    02. SAHARA Feat. Mario Winans - Mine
    03. PARIS HILTON - Stars Are Blind
    04. MARIO BISCHIN Feat. Revolt Klan - I.D Lover
    05. EDWARD MAYA & Vika Jigulina - Stereo Love
    06. AYSEL & ARASH - Always
    07. LOONA - Vamos A La Playa
    08. DARIUS & FINLAY Feat. Nicco - Hold On
    09. MIKA - Kick Ass
    10. LADY GAGA - Alejandro
    11. DENZEL - Under Arrest
    12. KYLIE MINOGUE - All The Lovers
    13. TAIO CRUZ - Dynamite
    14. BABY ALICE - Pinacolada Boy
    15. JASPER FORKS - River Flows In You
    16. DJ LAYLA - City Of Sleeping Hearts
    17. SHAKIRA - Waka Waka
    18. ERIC CHASE - Love Comes Around
    19. INNA - 10 Minutes
    20. R.I.O. - Hot Girl
    21. NOVASPACE - Close Your Eyes
    22. OSKAR LOBO - Cara De Nina
    23. ATB - Could You Believe
    24. McLEAN - My Name
    DOWNLOAD :
    Code:
    http://www.fileserve.com/file/PJdjk2y
    http://www.fileserve.com/file/rNuvxj9
    http://www.fileserve.com/file/NjKAwjf
    http://www.fileserve.com/file/avRXmSD
    http://www.fileserve.com/file/69KNeKc
    OR
    http://download.cz.hellshare.com/dvj/pop7-part1.rar/1769495
    http://download.cz.hellshare.com/dvj/pop7-part2.rar/1769915
    http://download.cz.hellshare.com/dvj/pop7-part3.rar/1770343
    http://download.cz.hellshare.com/dvj/pop7-part4.rar/1771222
    http://download.cz.hellshare.com/dvj/pop7-part5.rar/1771892

    >>LINKS ARE INTERCHANGEABLE<<
    nO pASS
    ...YOU CAN SHARE MY UPLOADS...
    [/align]

 

 

Posting Permissions

  • You may not post new threads
  • You may not post replies
  • You may not post attachments
  • You may not edit your posts
  •