Results 1 to 1 of 1
  1. #1

    Unhappy Ilaignan (2011)1CD - Good Quality - PDVDRip - XVID

    Follow us on Social Media







    Ilaignan (2011)1CD - Good Quality - PDVDRip - XVID






    General
    Complete name : Ilaignan (2011)1CD - Good Quality - PDVDRip - XVID.avi
    Format : AVI
    Format/Info : Audio Video Interleave
    Format profile : OpenDML
    Format settings : rec
    File size : 695 MiB
    Duration : 2h 29mn
    Overall bit rate : 651 Kbps
    Writing application : AVI-Mux GUI 1.17.8.3, Feb 16 201019:42:50

    Video
    ID : 0
    Format : MPEG-4 Visual
    Format profile : Advanced [email protected]
    Format settings, BVOP : 2
    Format settings, QPel : Yes
    Format settings, GMC : No warppoints
    Format settings, Matrix : Default (H.263)
    Codec ID : XVID
    Codec ID/Hint : XviD
    Duration : 2h 29mn
    Bit rate : 528 Kbps
    Width : 640 pixels
    Height : 272 pixels
    Display aspect ratio : 2.35:1
    Frame rate : 25.000 fps
    Color space : YUV
    Chroma subsampling : 4:2:0
    Bit depth : 8 bits
    Scan type : Progressive
    Compression mode : Lossy
    Bits/(Pixel*Frame) : 0.121
    Stream size : 564 MiB (81%)
    Writing library : XviD 1.2.1 (UTC 2008-12-04)

    Audio
    ID : 1
    Format : MPEG Audio
    Format version : Version 1
    Format profile : Layer 3
    Mode : Joint stereo
    Mode extension : MS Stereo
    Codec ID : 55
    Codec ID/Hint : MP3
    Duration : 2h 29mn
    Bit rate mode : Variable
    Bit rate : 115 Kbps
    Nominal bit rate : 128 Kbps
    Channel(s) : 2 channels
    Sampling rate : 48.0 KHz
    Compression mode : Lossy
    Stream size : 122 MiB (18%)
    Alignment : Aligned on interleaves
    Interleave, duration : 24 ms (0.60 video frame)
    Interleave, preload duration : 224 ms
    Title : VTS_01_1 Tc0 L2 2ch 48 112 DELAY 0ms
    Writing library : LAME3.98r
    Encoding settings : -m j -V 4 -q 2 -lowpass 17 --abr 128







    DOWNLOAD FROM DUCKLOAD::
    Code:
    http://www.duckload.com/download/2626496/Ilaignan_1CD.avi
    DOWNLOAD FROM FREAKSHARE::
    Code:
    http://freakshare.com/files/y5xeeie1/Ilaignan-1CD.avi.html

    CREDITS TO Original Releaser


 

 

Posting Permissions

  • You may not post new threads
  • You may not post replies
  • You may not post attachments
  • You may not edit your posts
  •