Results 1 to 1 of 1
  1. #1

    Smile Ilaignan (2011) 350MB - PDVDRip - X264

    Follow us on Social Media







    Ilaignan (2010)350MB - PDVDRip - X264 - Tamil






    General
    Complete name : Ilaignan (2010)350MB - PDVDRip - X264.mp4
    Format : MPEG-4
    Format profile : Base Media
    Codec ID : isom
    File size : 350 MiB
    Duration : 2h 29mn
    Overall bit rate : 328 Kbps
    Encoded date : UTC 2011-02-01 02:36:36
    Tagged date : UTC 2011-02-01 02:36:36

    Video
    ID : 1
    Format : AVC
    Format/Info : Advanced Video Codec
    Format profile : [email protected]
    Format settings, CABAC : Yes
    Format settings, ReFrames : 4 frames
    Format settings, GOP : M=1, N=16
    Codec ID : avc1
    Codec ID/Info : Advanced Video Coding
    Duration : 2h 29mn
    Bit rate mode : Variable
    Bit rate : 277 Kbps
    Maximum bit rate : 1 458 Kbps
    Width : 624 pixels
    Height : 256 pixels
    Display aspect ratio : 2.40:1
    Frame rate mode : Constant
    Frame rate : 25.000 fps
    Color space : YUV
    Chroma subsampling : 4:2:0
    Bit depth : 8 bits
    Scan type : Progressive
    Bits/(Pixel*Frame) : 0.069
    Stream size : 296 MiB (84%)
    Writing library : x264 core 112 r1867 22bfd31
    Encoding settings : cabac=1 / ref=3 / deblock=1:0:0 / analyse=0x3:0x113 / me=hex / subme=7 / psy=1 / psy_rd=1.00:0.00 / mixed_ref=1 / me_range=16 / chroma_me=1 / trellis=1 / 8x8dct=1 / cqm=0 / deadzone=21,11 / fast_pskip=1 / chroma_qp_offset=-2 / threads=3 / sliced_threads=0 / nr=0 / decimate=1 / interlaced=0 / constrained_intra=0 / bframes=3 / b_pyramid=2 / b_adapt=1 / b_bias=0 / direct=1 / weightb=1 / open_gop=0 / weightp=2 / keyint=250 / keyint_min=25 / scenecut=40 / intra_refresh=0 / rc_lookahead=40 / rc=2pass / mbtree=1 / bitrate=277 / ratetol=1.0 / qcomp=0.60 / qpmin=0 / qpmax=51 / qpstep=4 / cplxblur=20.0 / qblur=0.5 / ip_ratio=1.40 / aq=1:1.00
    Encoded date : UTC 2011-01-31 17:22:00
    Tagged date : UTC 2011-02-01 02:37:48

    Audio
    ID : 2
    Format : AAC
    Format/Info : Advanced Audio Codec
    Format profile : HE-AAC / LC
    Codec ID : 40
    Duration : 2h 29mn
    Bit rate mode : Variable
    Bit rate : 48.0 Kbps
    Maximum bit rate : 52.9 Kbps
    Channel(s) : 2 channels
    Channel positions : Front: L R
    Sampling rate : 48.0 KHz / 24.0 KHz
    Compression mode : Lossy
    Stream size : 51.2 MiB (15%)
    Encoded date : UTC 2011-02-01 02:37:40
    Tagged date : UTC 2011-02-01 02:37:48




    DOWNLOAD FROM DUCKLOAD::
    Code:
    http://www.duckload.com/download/2626508/Ilaignan_350MB.mp4
    DOWNLOAD FROM FREAKSHARE::
    Code:
    http://freakshare.com/files/uqpsy3xo/Ilaignan-350MB.mp4.html

    CREDITS TO Original Releaser


 

 

Posting Permissions

  • You may not post new threads
  • You may not post replies
  • You may not post attachments
  • You may not edit your posts
  •