Results 1 to 1 of 1
  1. #1
    Banned www.desirulez.net
    Join Date
    Nov 2010
    Posts
    0

    T

    Default The Mechanic (2011) TS XViD-T0XiC-iNK (734MB) Single Links

    Follow us on Social Media







    The Mechanic 2011 TS XViD-T0XiC-iNK



    Code:
    General
    
    Format                           : AVI
    Format/Info                      : Audio Video Interleave
    File size                        : 736 MiB
    Duration                         : 1h 25mn
    Overall bit rate                 : 1 209 Kbps
    Writing application              : VirtualDubMod 1.5.10.2 (build 2540/release)
    Writing library                  : VirtualDubMod build 2540/release
    
    Video
    ID                               : 0
    Format                           : MPEG-4 Visual
    Format profile                   : Advanced [email protected]
    Format settings, BVOP            : Yes
    Format settings, QPel            : No
    Format settings, GMC             : No warppoints
    Format settings, Matrix          : Default (MPEG)
    Muxing mode                      : Packed bitstream
    Codec ID                         : XVID
    Codec ID/Hint                    : XviD
    Duration                         : 1h 25mn
    Bit rate                         : 1 039 Kbps
    Width                            : 704 pixels
    Height                           : 264 pixels
    Display aspect ratio             : 2.667
    Frame rate                       : 25.000 fps
    Color space                      : YUV
    Chroma subsampling               : 4:2:0
    Bit depth                        : 8 bits
    Scan type                        : Progressive
    Bits/(Pixel*Frame)               : 0.224
    Stream size                      : 633 MiB (86%)
    Writing library                  : XviD 1.2.1 (UTC 2008-12-04)
    
    Audio
    ID                               : 1
    Format                           : MPEG Audio
    Format version                   : Version 1
    Format profile                   : Layer 3
    Codec ID                         : 55
    Codec ID/Hint                    : MP3
    Duration                         : 1h 25mn
    Bit rate mode                    : Constant
    Bit rate                         : 160 Kbps
    Channel(s)                       : 2 channels
    Sampling rate                    : 48.0 KHz
    Stream size                      : 97.4 MiB (13%)
    Alignment                        : Aligned on interleaves
    Interleave, duration             : 40 ms (1.00 video frame)
    Interleave, preload duration     : 504 ms
    
    http://www.imdb.com/title/tt0472399/






    Download:



    Code:
    http://www.fileserve.com/file/97nXWMz/The Mechanic (2011) TS XViD-T0XiC-iNK (734MB) Single Link.avi


    Code:
    http://www.filesonic.com/file/72981382/The Mechanic (2011) TS XViD-T0XiC-iNK (734MB) Single Link.avi

 

 

Posting Permissions

  • You may not post new threads
  • You may not post replies
  • You may not post attachments
  • You may not edit your posts
  •