Results 1 to 1 of 1
  1. #1
    Tech Team www.desirulez.net
    Join Date
    Dec 2010
    Location
    India
    Posts
    434

    T

    Cool Subramaniyapuram (2008)2CD - HDRip - Ayn - Upscaled - x264 - 5.1Audio - E-Subs

    Follow us on Social Media









    Subramaniyapuram (2008)2CD - HDRip - Ayn - Upscaled - x264 - 5.1Audio - E-Subs





    General
    Complete name : Subramaniyan
    Format : MPEG-4
    Format profile : Base Media
    Codec ID : isom
    File size : 1.37 GiB
    Duration : 2h 24mn
    Overall bit rate : 1 355 Kbps
    Encoded date : UTC 2011-01-29 02:47:40
    Tagged date : UTC 2011-01-29 02:47:40

    Video
    ID : 1
    Format : AVC
    Format/Info : Advanced Video Codec
    Format profile : [email protected]
    Format settings, CABAC : Yes
    Format settings, ReFrames : 3 frames
    Format settings, GOP : M=1, N=2
    Codec ID : avc1
    Codec ID/Info : Advanced Video Coding
    Duration : 2h 24mn
    Bit rate mode : Variable
    Bit rate : 1 160 Kbps
    Maximum bit rate : 4 446 Kbps
    Width : 864 pixels
    Height : 368 pixels
    Display aspect ratio : 2.35:1
    Frame rate mode : Constant
    Frame rate : 23.976 fps
    Color space : YUV
    Chroma subsampling : 4:2:0
    Bit depth : 8 bits
    Scan type : Progressive
    Bits/(Pixel*Frame) : 0.152
    Stream size : 1.17 GiB (86%)
    Writing library : x264 core 112 r1867 22bfd31
    Encoding settings : cabac=1 / ref=3 / deblock=1:-3:-3 / analyse=0x3:0x113 / me=hex / subme=7 / psy=1 / psy_rd=1.00:0.00 / mixed_ref=1 / me_range=16 / chroma_me=1 / trellis=0 / 8x8dct=1 / cqm=0 / deadzone=21,11 / fast_pskip=1 / chroma_qp_offset=-2 / threads=3 / sliced_threads=0 / nr=0 / decimate=1 / interlaced=0 / constrained_intra=0 / bframes=3 / b_pyramid=1 / b_adapt=2 / b_bias=0 / direct=1 / weightb=1 / open_gop=0 / weightp=2 / keyint=250 / keyint_min=23 / scenecut=40 / intra_refresh=0 / rc_lookahead=45 / rc=2pass / mbtree=1 / bitrate=1160 / ratetol=1.0 / qcomp=0.60 / qpmin=10 / qpmax=51 / qpstep=4 / cplxblur=20.0 / qblur=0.5 / ip_ratio=1.40 / aq=1:1.00
    Encoded date : UTC 2011-01-28 19:46:23
    Tagged date : UTC 2011-01-29 02:50:09

    Audio
    ID : 2
    Format : AC-3
    Format/Info : Audio Coding 3
    Mode extension : CM (complete main)
    Codec ID : ac-3
    Duration : 2h 24mn
    Bit rate mode : Constant
    Bit rate : 192 Kbps
    Channel(s) : 6 channels
    Channel positions : Front: L C R, Side: L R, LFE
    Sampling rate : 48.0 KHz
    Bit depth : 16 bits
    Compression mode : Lossy
    Stream size : 198 MiB (14%)
    Encoded date : UTC 2011-01-29 02:49:40
    Tagged date : UTC 2011-01-29 02:50:09






    DOWNLOAD FROM DUCKLOAD::
    Code:
    http://www.duckload.com/dl/GCEV2
    
    SUBTITLE :
    http://www.duckload.com/download/2529375/Subramaniyapuram.sub
    DOWNLOAD FROM FREAKSHARE::
    Code:
    http://freakshare.com/files/o8w3yan7/Subramaniyapuram.mp4.html
    
    SUBTITLE:
    http://freakshare.com/files/cmuprc0i/Subramaniyapuram.sub.html

    CREDITS TO Original releaser


 

 

Posting Permissions

  • You may not post new threads
  • You may not post replies
  • You may not post attachments
  • You may not edit your posts
  •