Results 1 to 1 of 1
  1. #1
    Tech Team www.desirulez.net
    Join Date
    Dec 2010
    Location
    India
    Posts
    434

    T

    Smile Shajahan (2001) 1CD - DVDrip - X264

    Follow us on Social Media









    Shajahan (2001) 1CD - DVDrip - X264






    General
    Complete name : Shajahan (2001)
    Format : MPEG-4
    Format profile : Base Media
    Codec ID : isom
    File size : 701 MiB
    Duration : 2h 28mn
    Overall bit rate : 659 Kbps
    Encoded date : UTC 2011-01-29 01:13:07
    Tagged date : UTC 2011-01-29 01:13:07

    Video
    ID : 1
    Format : AVC
    Format/Info : Advanced Video Codec
    Format profile : [email protected]
    Format settings, CABAC : Yes
    Format settings, ReFrames : 5 frames
    Format settings, GOP : M=1, N=3
    Codec ID : avc1
    Codec ID/Info : Advanced Video Coding
    Duration : 2h 28mn
    Bit rate mode : Variable
    Bit rate : 607 Kbps
    Maximum bit rate : 2 327 Kbps
    Width : 640 pixels
    Height : 272 pixels
    Display aspect ratio : 2.35:1
    Frame rate mode : Constant
    Frame rate : 25.000 fps
    Color space : YUV
    Chroma subsampling : 4:2:0
    Bit depth : 8 bits
    Scan type : Progressive
    Bits/(Pixel*Frame) : 0.139
    Stream size : 646 MiB (92%)
    Writing library : x264 core 112 r1867 22bfd31
    Encoding settings : cabac=1 / ref=5 / deblock=1:-1:-1 / analyse=0x3:0x113 / me=umh / subme=8 / psy=1 / psy_rd=1.00:0.00 / mixed_ref=1 / me_range=16 / chroma_me=1 / trellis=1 / 8x8dct=1 / cqm=0 / deadzone=21,11 / fast_pskip=1 / chroma_qp_offset=-2 / threads=3 / sliced_threads=0 / nr=0 / decimate=1 / interlaced=0 / constrained_intra=0 / bframes=3 / b_pyramid=0 / b_adapt=2 / b_bias=0 / direct=3 / weightb=1 / open_gop=0 / weightp=2 / keyint=250 / keyint_min=25 / scenecut=40 / intra_refresh=0 / rc_lookahead=50 / rc=2pass / mbtree=1 / bitrate=607 / ratetol=1.0 / qcomp=0.60 / qpmin=10 / qpmax=51 / qpstep=4 / cplxblur=20.0 / qblur=0.5 / ip_ratio=1.40 / aq=1:1.00
    Encoded date : UTC 2011-01-28 13:03:30
    Tagged date : UTC 2011-01-29 01:14:46

    Audio
    ID : 2
    Format : AAC
    Format/Info : Advanced Audio Codec
    Format profile : LC
    Codec ID : 40
    Duration : 2h 28mn
    Bit rate mode : Variable
    Bit rate : 48.0 Kbps
    Maximum bit rate : 54.4 Kbps
    Channel(s) : 2 channels
    Channel positions : Front: L R
    Sampling rate : 48.0 KHz
    Compression mode : Lossy
    Stream size : 51.0 MiB (7%)
    Encoded date : UTC 2011-01-29 01:14:37
    Tagged date : UTC 2011-01-29 01:14:46










    DOWNLOAD FROM FREAKSHARE::
    Code:
    http://freakshare.com/files/uwuvb9k5/Shajahan.mp4.html

    CREDITS TO Original releaser


 

 

Posting Permissions

  • You may not post new threads
  • You may not post replies
  • You may not post attachments
  • You may not edit your posts
  •