Results 1 to 1 of 1
  1. #1

    Wink Mayabazaar (2010) ~ 1CD ~ Xvid ~ Mp3 ~ TSK ~ Team IST

    Follow us on Social Media









    Format : AVI
    Format/Info : Audio Video Interleave
    Format profile : OpenDML
    File size : 692 MiB
    Duration : 2h 29mn
    Overall bit rate : 649 Kbps

    Video
    ID : 0
    Format : MPEG-4 Visual
    Format profile : Advanced [email protected]
    Format settings, BVOP : Yes
    Format settings, QPel : No
    Format settings, GMC : No warppoints
    Format settings, Matrix : Default (H.263)
    Codec ID : XVID
    Codec ID/Hint : XviD
    Duration : 2h 29mn
    Bit rate : 579 Kbps
    Width : 608 pixels
    Height : 272 pixels
    Display aspect ratio : 2.25:1
    Frame rate : 29.970 fps
    Color space : YUV
    Chroma subsampling : 4:2:0
    Bit depth : 8 bits
    Scan type : Progressive
    Bits/(Pixel*Frame) : 0.117
    Stream size : 618 MiB (89%)
    Writing library : XviD 1.2.1 (UTC 2008-12-04)

    Audio
    ID : 1
    Format : MPEG Audio
    Format version : Version 1
    Format profile : Layer 3
    Codec ID : 55
    Codec ID/Hint : MP3
    Duration : 2h 29mn
    Bit rate mode : Variable
    Bit rate : 60.6 Kbps
    Nominal bit rate : 64.0 Kbps
    Channel(s) : 1 channel
    Sampling rate : 48.0 KHz
    Stream size : 64.6 MiB (9%)
    Alignment : Aligned on interleaves

















    Code:
    http://cramit.in/h95u85rf12kw
    http://hotfile.com/dl/100547058/856bf99/Mayabazaar(2010)1CDXvidMp3TSKTeamIST.avi.html

 

 

Posting Permissions

  • You may not post new threads
  • You may not post replies
  • You may not post attachments
  • You may not edit your posts
  •