Results 1 to 1 of 1
  1. #1
    Banned www.desirulez.net
    Join Date
    Jan 2010
    Posts
    2,522

    T

    Thumbs up 1942 A Love Story (1993) DvD - 2CD - Rip - Xvid - Esub

    Follow us on Social Media







    1942 A Love Story (1993) DvD - 2CD - Rip - Xvid - Esub











    ]Ripper : Rahul
    Complete name : 1942 A Love Story (1993)
    Format : AVI
    Format/Info : Audio Video Interleave
    File size : 1.37 GiB
    Duration : 2h 53mn
    Overall bit rate : 1 128 Kbps
    Writing application : VirtualDubMod 1.5.10.3 |
    Video
    ID : 0
    Format : MPEG-4 Visual
    Format profile : Advanced [email protected]
    Format settings, BVOP : Yes
    Format settings, QPel : No
    Format settings, GMC : No warppoints
    Format settings, Matrix : Default (H.263)
    Codec ID : XVID
    Codec ID/Hint : XviD
    Duration : 2h 53mn
    Bit rate : 924 Kbps
    Width : 720 pixels
    Height : 384 pixels
    Display aspect ratio : 1.875
    Frame rate : 29.970 fps
    Color space : YUV
    Chroma subsampling : 4:2:0
    Bit depth : 8 bits
    Scan type : Progressive
    Compression mode : Lossy
    Bits/(Pixel*Frame) : 0.111
    Stream size : 1.12 GiB (82%)


    Audio
    ID : 1
    Format : AC-3
    Format/Info : Audio Coding 3
    Format profile : Dolby Digital
    Mode extension : CM (complete main)
    Codec ID : 2000
    Duration : 2h 53mn
    Bit rate mode : Constant
    Bit rate : 192 Kbps
    Channel(s) : 2 channels
    Channel positions : Front: L R
    Sampling rate : 48.0 KHz
    Bit depth : 16 bits
    Compression mode : Lossy
    Stream size : 239 MiB (17%)
    Alignment : Split accross interleaves
    Interleave, duration : 33 ms (1.00 video frame)
    Interleave, preload duration : 500 ms
























    400MB Links

    Code:
    http://www.fileserve.com/file/Hw3r38e/1942.A.Love.Story.1993.DvD.2CD.Rip.Xvid.E-Sub.By.Deejam.part1.rar
    http://www.fileserve.com/file/66mAxA2/1942.A.Love.Story.1993.DvD.2CD.Rip.Xvid.E-Sub.By.Deejam.part2.rar
    http://www.fileserve.com/file/sUKcSzd/1942.A.Love.Story.1993.DvD.2CD.Rip.Xvid.E-Sub.By.Deejam.part3.rar
    http://www.fileserve.com/file/emtqEuf/1942.A.Love.Story.1993.DvD.2CD.Rip.Xvid.E-Sub.By.Deejam.part4.rar

    OR



    Code:
    http://www.filesonic.com/file/69512593/1942.A.Love.Story.1993.DvD.2CD.Rip.Xvid.E-Sub.By.Deejam.part1.rar
    http://www.filesonic.com/file/69513345/1942.A.Love.Story.1993.DvD.2CD.Rip.Xvid.E-Sub.By.Deejam.part2.rar
    http://www.filesonic.com/file/69514219/1942.A.Love.Story.1993.DvD.2CD.Rip.Xvid.E-Sub.By.Deejam.part3.rar
    http://www.filesonic.com/file/69512715/1942.A.Love.Story.1993.DvD.2CD.Rip.Xvid.E-Sub.By.Deejam.part4.rar
    OR


    Code:
    http://hotfile.com/dl/100500757/5847ce0/1942.A.Love.Story.1993.DvD.2CD.Rip.Xvid.E-Sub.By.Deejam.part1.rar.html
    http://hotfile.com/dl/100500848/948142d/1942.A.Love.Story.1993.DvD.2CD.Rip.Xvid.E-Sub.By.Deejam.part2.rar.html
    http://hotfile.com/dl/100501285/8855c76/1942.A.Love.Story.1993.DvD.2CD.Rip.Xvid.E-Sub.By.Deejam.part3.rar.html
    http://hotfile.com/dl/100500799/1657cfd/1942.A.Love.Story.1993.DvD.2CD.Rip.Xvid.E-Sub.By.Deejam.part4.rar.html

 

 

Posting Permissions

  • You may not post new threads
  • You may not post replies
  • You may not post attachments
  • You may not edit your posts
  •