Results 1 to 3 of 3
  1. #1
    Banned www.desirulez.net
    Join Date
    Jan 2010
    Posts
    2,522

    Thumbs up Sarphira ( 1992 ) DvD - 2CD - XViD - 6Channel - AC3

    Follow us on Social Media





    Sarphira ( 1992 ) DvD - 2CD - XViD - 6Channel - AC3










    Code:
    Ripper : Rahul
    Complete name : Sarphira ( 1992 )
    Format : AVI
    Format/Info : Audio Video Interleave
    File size : 1.37 GiB
    Duration : 2h 19mn
    Overall bit rate : 1 401 Kbps
    Writing application : VirtualDubMod 1.5.10.3 |
    
    Video
    ID : 0
    Format : MPEG-4 Visual
    Format profile : Advanced [email protected]
    Format settings, BVOP : Yes
    Format settings, QPel : No
    Format settings, GMC : No warppoints
    Format settings, Matrix : Default (H.263)
    Codec ID : XVID
    Codec ID/Hint : XviD
    Duration : 2h 19mn
    Bit rate : 941 Kbps
    Width : 720 pixels
    Height : 384 pixels
    Display aspect ratio : 1.875
    Frame rate : 29.970 fps
    Color space : YUV
    Chroma subsampling : 4:2:0
    Bit depth : 8 bits
    Scan type : Progressive
    Compression mode : Lossy
    Bits/(Pixel*Frame) : 0.114
    Stream size : 942 MiB (67%)
    Writing library : XviD 1.2.1 (UTC 2008-12-04)
    
    Audio
    ID : 1
    Format : AC-3
    Format/Info : Audio Coding 3
    Mode extension : CM (complete main)
    Codec ID : 2000
    Duration : 2h 19mn
    Bit rate mode : Constant
    Bit rate : 448 Kbps
    Channel(s) : 6 channels
    Channel positions : Front: L C R, Side: L R, LFE
    Sampling rate : 48.0 KHz
    Bit depth : 16 bits
    Compression mode : Lossy
    Stream size : 449 MiB (32%)
    Alignment : Split accross interleaves
    Interleave, duration : 33 ms (1.00 video frame)
    Interleave, preload duration : 500 ms




























    400MB Links




    Code:
    http://www.fileserve.com/file/MKfGFhr/Sarphira.1992.DvDRIp.2CD.6.Channel.AC3.Xvid.By.Deejam.part1.rar
    http://www.fileserve.com/file/knVaYWT/Sarphira.1992.DvDRIp.2CD.6.Channel.AC3.Xvid.By.Deejam.part2.rar
    http://www.fileserve.com/file/QRuYuZq/Sarphira.1992.DvDRIp.2CD.6.Channel.AC3.Xvid.By.Deejam.part3.rar
    http://www.fileserve.com/file/TvbPHwB/Sarphira.1992.DvDRIp.2CD.6.Channel.AC3.Xvid.By.Deejam.part4.rar
    OR



    Code:
    http://www.filesonic.com/file/69505037/Sarphira.1992.DvDRIp.2CD.6.Channel.AC3.Xvid.By.Deejam.part1.rar
    http://www.filesonic.com/file/69506145/Sarphira.1992.DvDRIp.2CD.6.Channel.AC3.Xvid.By.Deejam.part2.rar
    http://www.filesonic.com/file/69505881/Sarphira.1992.DvDRIp.2CD.6.Channel.AC3.Xvid.By.Deejam.part3.rar
    http://www.filesonic.com/file/69505653/Sarphira.1992.DvDRIp.2CD.6.Channel.AC3.Xvid.By.Deejam.part4.rar
    OR

    Code:
    http://hotfile.com/dl/100498455/5bb6a4f/Sarphira.1992.DvDRIp.2CD.6.Channel.AC3.Xvid.By.Deejam.part1.rar.html
    http://hotfile.com/dl/100498674/f4ea40f/Sarphira.1992.DvDRIp.2CD.6.Channel.AC3.Xvid.By.Deejam.part2.rar.html
    http://hotfile.com/dl/100498594/6195982/Sarphira.1992.DvDRIp.2CD.6.Channel.AC3.Xvid.By.Deejam.part3.rar.html
    http://hotfile.com/dl/100498530/cefbaa1/Sarphira.1992.DvDRIp.2CD.6.Channel.AC3.Xvid.By.Deejam.part4.rar.html


  2. #2
    New Arrivals
    Join Date
    Feb 2012
    Posts
    7

    Default

    I ask you to restore all files on the reference film Sarphira (1992) DvD - 2CD - XViD - 6Channel - AC3. I want to download this movie Sarphira (1992) DvD - 2CD - XViD - 6Channel - AC3

  3. #3
    New Arrivals
    Join Date
    Feb 2012
    Posts
    7

    Default

    I ask you to restore all files on the reference film Sarphira (1992) DvD - 2CD - XViD - 6Channel - AC3. I want to download this movie Sarphira (1992) DvD - 2CD - XViD - 6Channel - AC3

 

 

Posting Permissions

  • You may not post new threads
  • You may not post replies
  • You may not post attachments
  • You may not edit your posts
  •