Results 1 to 1 of 1
  1. #1
    Banned www.desirulez.net
    Join Date
    Jan 2010
    Posts
    2,522

    T

    Thumbs up Woh 7 Din (1983) 2CD XViD 6 Channel AC3 Sound English Subtitles

    Follow us on Social Media







    Woh 7 Din (1983) 2CD XViD 6 Channel AC3 Sound English Subtitles






    Format : AVI
    Format/Info : Audio Video Interleave
    File size : 1.37 GiB
    Duration : 2h 19mn
    Overall bit rate : 1 399 Kbps
    Writing application : VirtualDubMod 1.5.10.2 (build 2542/release)
    Writing library : VirtualDubMod build 2542/release

    Video
    ID : 0
    Format : MPEG-4 Visual
    Format profile : [email protected]
    Format settings, BVOP : Yes
    Format settings, QPel : Yes
    Format settings, GMC : No warppoints
    Format settings, Matrix : Default (MPEG)
    Codec ID : XVID
    Codec ID/Hint : XviD
    Duration : 2h 19mn
    Bit rate : 1 198 Kbps
    Width : 640 pixels
    Height : 480 pixels
    Display aspect ratio : 4:3
    Frame rate : 23.976 fps
    Resolution : 24 bits
    Colorimetry : 4:2:0
    Scan type : Progressive
    Bits/(Pixel*Frame) : 0.163
    Stream size : 1.17 GiB (86%)
    Writing library : XviD 1.2.1 (UTC 2008-12-04)

    Audio
    ID : 1
    Format : AC-3
    Format/Info : Audio Coding 3
    Codec ID : 2000
    Duration : 2h 19mn
    Bit rate mode : Constant
    Bit rate : 192 Kbps
    Channel(s) : 6 channels
    Channel positions : Front: L C R, Surround: L R, LFE
    Sampling rate : 48.0 KHz
    Video delay : 100ms
    Stream size : 192 MiB (14%)
    Alignment : Split accross interleaves
    Interleave, duration : 42 ms (1.00 video frame)
    Interleave, preload duration : 500 ms

    Ripper Myself(Ajit)
    Source DVD9
    Subs English














    400MB Links

    Code:
    http://www.fileserve.com/file/jGkNW6G/Woh.7.Din.1983.DVDRIP.2CD.E-Subs.By.Deejam.part1.rar
    http://www.fileserve.com/file/VG7pBAr/Woh.7.Din.1983.DVDRIP.2CD.E-Subs.By.Deejam.part2.rar
    http://www.fileserve.com/file/AKcHWv4/Woh.7.Din.1983.DVDRIP.2CD.E-Subs.By.Deejam.part3.rar
    http://www.fileserve.com/file/Rxn8zqU/Woh.7.Din.1983.DVDRIP.2CD.E-Subs.By.Deejam.part4.rar

    400MB Links



    OR




    Code:
    http://www.filesonic.com/file/69569171/Woh.7.Din.1983.DVDRIP.2CD.E-Subs.By.Deejam.part1.rar
    http://www.filesonic.com/file/69570339/Woh.7.Din.1983.DVDRIP.2CD.E-Subs.By.Deejam.part2.rar
    http://www.filesonic.com/file/69570389/Woh.7.Din.1983.DVDRIP.2CD.E-Subs.By.Deejam.part3.rar
    http://www.filesonic.com/file/69570277/Woh.7.Din.1983.DVDRIP.2CD.E-Subs.By.Deejam.part4.rar
    OR


    Code:
    http://hotfile.com/dl/100515474/f37bd6b/Woh.7.Din.1983.DVDRIP.2CD.E-Subs.By.Deejam.part1.rar.html
    http://hotfile.com/dl/100592905/424bc76/Woh.7.Din.1983.DVDRIP.2CD.E-Subs.By.Deejam.part2.rar.html
    http://hotfile.com/dl/100515948/8804554/Woh.7.Din.1983.DVDRIP.2CD.E-Subs.By.Deejam.part3.rar.html
    http://hotfile.com/dl/100515795/04df01c/Woh.7.Din.1983.DVDRIP.2CD.E-Subs.By.Deejam.part4.rar.html




 

 

Posting Permissions

  • You may not post new threads
  • You may not post replies
  • You may not post attachments
  • You may not edit your posts
  •