Results 1 to 1 of 1
  1. #1
    Banned www.desirulez.net
    Join Date
    Jan 2010
    Posts
    2,522

    Thumbs up Yari Dushmani (1980) 2CD XViD 6 Channels AC3 Sound English Subtitles

    Follow us on Social Media





    Yari Dushmani (1980) 2CD XViD 6 Channels AC3 Sound English Subtitles




    Format : AVI
    Format/Info : Audio Video Interleave
    File size : 1.37 GiB
    Duration : 2h 13mn
    Overall bit rate : 1 461 Kbps
    Writing application : VirtualDubMod 1.5.10.2 (build 2542/release)
    Writing library : VirtualDubMod build 2542/release

    Video
    ID : 0
    Format : MPEG-4 Visual
    Format profile : [email protected]
    Format settings, BVOP : Yes
    Format settings, QPel : Yes
    Format settings, GMC : No warppoints
    Format settings, Matrix : Default (MPEG)
    Codec ID : XVID
    Codec ID/Hint : XviD
    Duration : 2h 13mn
    Bit rate : 1 260 Kbps
    Width : 640 pixels
    Height : 464 pixels
    Display aspect ratio : 1.379
    Frame rate : 23.976 fps
    Resolution : 24 bits
    Colorimetry : 4:2:0
    Scan type : Progressive
    Bits/(Pixel*Frame) : 0.177
    Stream size : 1.18 GiB (86%)
    Writing library : XviD 1.2.1 (UTC 2008-12-04)

    Audio
    ID : 1
    Format : AC-3
    Format/Info : Audio Coding 3
    Codec ID : 2000
    Duration : 2h 13mn
    Bit rate mode : Constant
    Bit rate : 192 Kbps
    Channel(s) : 6 channels
    Channel positions : Front: L C R, Surround: L R, LFE
    Sampling rate : 48.0 KHz
    Stream size : 184 MiB (13%)
    Alignment : Split accross interleaves
    Interleave, duration : 42 ms (1.00 video frame)
    Interleave, preload duration : 500 ms













    400MB Links




    Code:
    http://www.fileserve.com/file/FjuWGQV/Yari.Dushmani.1980.DVDRIP.2CD.E-Subs.Xvid.By.Deejam.part1.rar
    http://www.fileserve.com/file/USwbn7u/Yari.Dushmani.1980.DVDRIP.2CD.E-Subs.Xvid.By.Deejam.part2.rar
    http://www.fileserve.com/file/hdr7VyD/Yari.Dushmani.1980.DVDRIP.2CD.E-Subs.Xvid.By.Deejam.part3.rar
    http://www.fileserve.com/file/dzbMQC8/Yari.Dushmani.1980.DVDRIP.2CD.E-Subs.Xvid.By.Deejam.part4.rar


    OR



    Code:
    http://www.filesonic.com/file/69508735/Yari.Dushmani.1980.DVDRIP.2CD.E-Subs.Xvid.By.Deejam.part1.rar
    http://www.filesonic.com/file/69508665/Yari.Dushmani.1980.DVDRIP.2CD.E-Subs.Xvid.By.Deejam.part2.rar
    http://www.filesonic.com/file/69508807/Yari.Dushmani.1980.DVDRIP.2CD.E-Subs.Xvid.By.Deejam.part3.rar
    http://www.filesonic.com/file/69508457/Yari.Dushmani.1980.DVDRIP.2CD.E-Subs.Xvid.By.Deejam.part4.rar

    OR

    Code:
    http://hotfile.com/dl/100499719/fa35395/Yari.Dushmani.1980.DVDRIP.2CD.E-Subs.Xvid.By.Deejam.part1.rar.html
    http://hotfile.com/dl/100499718/0f4534c/Yari.Dushmani.1980.DVDRIP.2CD.E-Subs.Xvid.By.Deejam.part2.rar.html
    http://hotfile.com/dl/100499519/46869b8/Yari.Dushmani.1980.DVDRIP.2CD.E-Subs.Xvid.By.Deejam.part3.rar.html
    http://hotfile.com/dl/100499417/9b6a445/Yari.Dushmani.1980.DVDRIP.2CD.E-Subs.Xvid.By.Deejam.part4.rar.html








 

 

Posting Permissions

  • You may not post new threads
  • You may not post replies
  • You may not post attachments
  • You may not edit your posts
  •