Results 1 to 1 of 1
  1. #1
    Tech Team www.desirulez.net
    Join Date
    Dec 2010
    Location
    India
    Posts
    434

    T

    Cool Pathinaru 16 (2011)1CD - CAM Rip - Good Print - X264 (Single & Split Links)

    Follow us on Social Media









    Pathinaaru 16 (2011)1CD - CAM Rip - Good Print






    General
    Complete name : Pathinaru.avi
    Format : AVI
    Format/Info : Audio Video Interleave
    Format profile : OpenDML
    Format settings : rec
    File size : 693 MiB
    Duration : 1h 46mn
    Overall bit rate : 911 Kbps
    Writing application : AVI-Mux GUI 1.17.8.3, Feb 16 201019:42:50

    Video
    ID : 0
    Format : MPEG-4 Visual
    Format profile : Advanced [email protected]
    Format settings, BVOP : 2
    Format settings, QPel : No
    Format settings, GMC : No warppoints
    Format settings, Matrix : Default (H.263)
    Codec ID : XVID
    Codec ID/Hint : XviD
    Duration : 1h 46mn
    Bit rate : 828 Kbps
    Width : 608 pixels
    Height : 272 pixels
    Display aspect ratio : 2.25:1
    Frame rate : 29.970 fps
    Color space : YUV
    Chroma subsampling : 4:2:0
    Bit depth : 8 bits
    Scan type : Progressive
    Compression mode : Lossy
    Bits/(Pixel*Frame) : 0.167
    Stream size : 630 MiB (91%)
    Writing library : XviD 1.2.1 (UTC 2008-12-04)

    Audio
    ID : 1
    Format : MPEG Audio
    Format version : Version 1
    Format profile : Layer 3
    Mode : Joint stereo
    Mode extension : MS Stereo
    Codec ID : 55
    Codec ID/Hint : MP3
    Duration : 1h 46mn
    Bit rate mode : Variable
    Bit rate : 75.1 Kbps
    Nominal bit rate : 96.0 Kbps
    Channel(s) : 2 channels
    Sampling rate : 32.0 KHz
    Compression mode : Lossy
    Stream size : 57.2 MiB (8%)
    Alignment : Aligned on interleaves
    Interleave, duration : 36 ms (1.08 video frame)
    Interleave, preload duration : 214 ms
    Title : VTS_01_1 Tc0 L2 2ch 48 224 DELAY 0ms_new
    Writing library : LAME3.98r
    Encoding settings : -m j -V 4 -q 2 -lowpass 15.1 --abr 96








    DOWNLOAD FROM DUCKLOAD::
    Code:
    http://www.duckload.com/dl/c0EV2
    DOWNLOAD FROM Freakshare::
    Code:
    http://freakshare.com/files/gqjr1eck/Pathinaru.avi.html
    DOWNLOAD FROM MEGAUPLOAD:: 99 MB LINKS
    Code:
    http://www.megaupload.com/?d=A3TIPK1M
    http://www.megaupload.com/?d=7WKGWKED
    http://www.megaupload.com/?d=ZXNBIGQ8
    http://www.megaupload.com/?d=ZLR2DI27
    http://www.megaupload.com/?d=7NSD4EPU
    http://www.megaupload.com/?d=H2XPQVPJ
    http://www.megaupload.com/?d=8L0BVQ5Y
    http://www.megaupload.com/?d=VG818TAY
    USE HJSPLIT TO JOIN FILES

    DOWNLOAD HJSPLIT - 0.33MB


    Code:
    http://www.duckload.com/download/1526932/hjsplit_24.zip

    CREDITS TO Original releaser


 

 

Posting Permissions

  • You may not post new threads
  • You may not post replies
  • You may not post attachments
  • You may not edit your posts
  •